Ошибка

Университет монстров / Monsters University (Дэн Скэнлон)[2013, мультфильм, фэнтези, комедия, семейный, приключения BDRip 720p]

Ответить на тему
 
Автор Сообщение

Sweetie Dragon

Пол: Пол:Муж

Стаж: 4 года 1 месяц

Сообщений: 67

Россия
Рейтинг

post 30-Окт-2014 23:04 1[+]

[Цитировать] 

Университет монстров / Monsters University



Год выпуска: 2013
Страна: США
Жанр: мультфильм, фэнтези, комедия, семейный, приключения
Продолжительность: 01:43:47
Перевод: Профессиональный (дублированный)
Субтитры: Английские, испанские, французские субтитры, английские комментарии (Скэнлон)
Режиссер:
  • Дэн Скэнлон
В ролях:
  • Джон Гудман
  • Билли Кристал
  • Стив Бушеми
  • Хелен Миррен
  • Питер Сон
  • Джоэль Мюррей
  • Шон Хейс
  • Дэйв Фоли
  • Чарли Дэй
  • Альфред Молина

Описание: Майк и Салли — самые опытные пугатели в Монстрополисе, но так было далеко не всегда. Когда они встретились впервые, эти монстры терпеть друг друга не могли. «Университет Монстров» — история о том, как наши старые знакомые прошли путь от взаимной неприязни к крепкой дружбе.

Качество: BDRip 720p
Формат: MKV
Видео кодек: AVC
Аудио кодек: AC-3
Видео: AVC, 1280*720(16:9), 6568kbps, 23,976 кадра/сек
Аудио: Rus: AC3, 640kbps, 6channels, 48.0 kHz
Аудио 2: Eng: AC3, 640kbps, 6channels, 48.0 kHz


D:\Downloads\[Video]\[Films]\Университет монстров\Monsters.University.2013.720p.BluRay.AC3.x264-SbR.mkv
General
Unique ID : 182396681487552096714886261026586073182 (0x893852B44800D38F9821FE365CD7985E)
Complete name : D:\Downloads\[Video]\[Films]\Университет монстров\Monsters.University.2013.720p.BluRay.AC3.x264-SbR.mkv
Format : Matroska
Format version : Version 2
File size : 5.95 GiB
Duration : 1h 43mn
Overall bit rate : 8 203 Kbps
Movie name : Monsters University (2013) - Release for HDBITS by SbR
Encoded date : UTC 2013-10-31 21:12:39
Writing application : mkvmerge v6.3.0 ('You can't stop me!') built on Jun 28 2013 20:09:41
Writing library : libebml v1.3.0 + libmatroska v1.4.0
Cover : Yes
Attachment : Yes
Video #1
ID : 1
Format : AVC
Format/Info : Advanced Video Codec
Format profile : High@L4.1
Format settings, CABAC : Yes
Format settings, ReFrames : 9 frames
Codec ID : V_MPEG4/ISO/AVC
Duration : 1h 43mn
Bit rate : 6 568 Kbps
Width : 1 280 pixels
Height : 720 pixels
Display aspect ratio : 16:9
Frame rate mode : Constant
Frame rate : 23.976 fps
Color space : YUV
Chroma subsampling : 4:2:0
Bit depth : 8 bits
Scan type : Progressive
Bits/(Pixel*Frame) : 0.297
Stream size : 4.76 GiB (80%)
Title : Release for HDBITS
Writing library : x264 core 138 r2359+704+48 3f879a0 tMod [8-bit@4:2:0 X86_64]
Encoding settings : cabac=1 / ref=9 / deblock=1:-1:-1 / analyse=0x3:0x113 / me=umh / subme=11 / psy=1 / fade_compensate=0.00 / psy_rd=0.60:0.00 / mixed_ref=1 / me_range=48 / chroma_me=1 / trellis=2 / 8x8dct=1 / cqm=0 / deadzone=21,11 / fast_pskip=1 / chroma_qp_offset=-2 / threads=12 / lookahead_threads=2 / sliced_threads=0 / nr=0 / decimate=1 / interlaced=0 / bluray_compat=0 / constrained_intra=0 / fgo=0 / bframes=8 / b_pyramid=2 / b_adapt=2 / b_bias=0 / direct=3 / weightb=1 / open_gop=0 / weightp=2 / keyint=250 / keyint_min=23 / scenecut=40 / intra_refresh=0 / rc_lookahead=60 / rc=crf / mbtree=0 / crf=17.0000 / qcomp=0.70 / qpmin=0:0:0 / qpmax=69:69:69 / qpstep=4 / vbv_maxrate=62500 / vbv_bufsize=78125 / crf_max=0.0 / nal_hrd=none / ip_ratio=1.40 / pb_ratio=1.30 / aq=1:0.60 / aq-sensitivity=11.00 / aq-factor=1.00:1.00:1.00 / aq2=1:0.50 / aq2-sensitivity=9.00 / aq2-factor=1.00:1.00:1.00 / aq3=1:[0.50:0.50]:[0.50:0.50]:[0.50:0.50]:[0.50:0.50] / aq3-sensitivity=10.00 / aq3-factor=[1.00:1.00]:[1.00:1.00]:[1.00:1.00] / aq3-boundary=192:64:24 / zones=5942,5981,b=2/6053,6085,b=2/7116,8072,b=2/19701,23255,b=2/34947,42280,b=2/52433,53411,b=2/53685,55130,b=2/60416,62955,b=2/82725,84431,b=2/84884,84953,b=2/85146,85216,b=2/85274,85380,b=2/85459,85522,b=2/85615,85642,b=2/85783,86160,b=2/86935,88764,b=2/96911,97174,b=2/99989,100191,b=2/100673,100737,b=2/100766,100814,b=2/100878,101009,b=2/101064,101245,b=2/101341,101385,b=2/101490,101737,b=2/101793,101830,b=2/102312,102473,b=2/102536,102841,b=2/104391,104871,b=2/105198,105471,b=2/112724,114262,b=2/115300,124617,b=2
Language : English
Default : Yes
Forced : No
Color primaries : BT.709
Transfer characteristics : BT.709
Matrix coefficients : BT.709
Audio #2
ID : 2
Format : AC-3
Format/Info : Audio Coding 3
Mode extension : CM (complete main)
Format settings, Endianness : Big
Codec ID : A_AC3
Duration : 1h 43mn
Bit rate mode : Constant
Bit rate : 640 Kbps
Channel(s) : 6 channels
Channel positions : Front: L C R, Side: L R, LFE
Sampling rate : 48.0 KHz
Bit depth : 16 bits
Compression mode : Lossy
Stream size : 475 MiB (8%)
Language : Russian
Default : Yes
Forced : No
Audio #3
ID : 3
Format : AC-3
Format/Info : Audio Coding 3
Mode extension : CM (complete main)
Format settings, Endianness : Big
Codec ID : A_AC3
Duration : 1h 43mn
Bit rate mode : Constant
Bit rate : 640 Kbps
Channel(s) : 6 channels
Channel positions : Front: L C R, Side: L R, LFE
Sampling rate : 48.0 KHz
Bit depth : 16 bits
Compression mode : Lossy
Stream size : 475 MiB (8%)
Language : English
Default : No
Forced : No
Audio #4
ID : 4
Format : AC-3
Format/Info : Audio Coding 3
Mode extension : CM (complete main)
Format settings, Endianness : Big
Codec ID : A_AC3
Duration : 1h 43mn
Bit rate mode : Constant
Bit rate : 192 Kbps
Channel(s) : 2 channels
Channel positions : Front: L R
Sampling rate : 48.0 KHz
Bit depth : 16 bits
Compression mode : Lossy
Stream size : 143 MiB (2%)
Title : Commentary by Dan Scanlon, Kori Rae, and Kelsey Mann
Language : English
Default : No
Forced : No
Text #5
ID : 5
Format : UTF-8
Codec ID : S_TEXT/UTF8
Codec ID/Info : UTF-8 Plain Text
Language : English
Default : No
Forced : No
Text #6
ID : 6
Format : UTF-8
Codec ID : S_TEXT/UTF8
Codec ID/Info : UTF-8 Plain Text
Title : SDH
Language : English
Default : No
Forced : No
Text #7
ID : 7
Format : UTF-8
Codec ID : S_TEXT/UTF8
Codec ID/Info : UTF-8 Plain Text
Language : French
Default : No
Forced : No
Text #8
ID : 8
Format : UTF-8
Codec ID : S_TEXT/UTF8
Codec ID/Info : UTF-8 Plain Text
Language : Spanish
Default : No
Forced : No
Text #9
ID : 9
Format : UTF-8
Codec ID : S_TEXT/UTF8
Codec ID/Info : UTF-8 Plain Text
Title : Commentary by Dan Scanlon, Kori Rae, Kelsey Mann
Language : English
Default : No
Forced : No
Text #10
ID : 10
Format : UTF-8
Codec ID : S_TEXT/UTF8
Codec ID/Info : UTF-8 Plain Text
Title : Commentary by Dan Scanlon, Kori Rae, Kelsey Mann - SDH
Language : English
Default : No
Forced : No
info [Профиль]  [ЛС] 

post 31-Окт-2014 02:11 (спустя 3 часа) [-]0[+]

Топик был перенесен из форума Анонсы в форум Мультфильмы (HD Video)

BZzz
 

dotachin

Стаж: 6 лет 3 месяца

Сообщений: 297

Рейтинг

post 31-Окт-2014 02:38 (спустя 3 часа) [-]8[+]

[Цитировать] 

Это про них
info [Профиль]  [ЛС] 

_MAD_CAT_

Пол: Пол:Муж

Стаж: 3 года 7 месяцев

Сообщений: 143

Белоруссия
Рейтинг

post 31-Окт-2014 07:33 (спустя 4 часа) [-]0[+]

[Цитировать] 

Хороший мультик, дочурке очень понравился)
info [Профиль]  [ЛС] 
Показать сообщения:    
Ответить на тему

Текущее время: 03-Дек 19:40

Часовой пояс: GMT + 4



Вы не можете начинать темы
Вы не можете отвечать на сообщения
Вы не можете редактировать свои сообщения
Вы не можете удалять свои сообщения
Вы не можете голосовать в опросах
Вы не можете прикреплять файлы к сообщениям
Вы не можете скачивать файлы