Ошибка

До окончания фрилича осталось:


КВН-2014. Высшая лига. Второй полуфинал [26.10.2014, Тв-шоу, юмор, SATRip]

Ответить на тему
 
Автор Сообщение

batya)))

Пол: Пол:Муж

Стаж: 7 лет 1 месяц

Сообщений: 873

Россия
Рейтинг

post 26-Окт-2014 17:33 0[+]

[Цитировать] 

pic="http://kartinko.org/images/530011.jpeg"

КВН-2014. Высшая лига. Второй полуфинал



Год выпуска: 26.10.2014
Страна: Россия
Жанр: Тв-шоу, юмор
Продолжительность: ~02:00:00
Ведущие: Александр Масляков
Играют:
  • "Союз", Тюменская область
  • "Детективное агентство "Лунный свет"", Белгород
  • "Сборная Физтеха", Долгопрудный
  • "Саратов", Саратов
  • "Плохая компания", сборная Красноярского края

Описание
КВН-2014. Высшая лига. Второй полуфинал

  • Качество видео: SATRip
  • Формат видео: AVI
  • Видео кодек: XVID
  • Аудио кодек: MP3
  • Видео:704x448 25.00fps 1800kbps
  • Аудио:48000Hz stereo 128kbps 2 ch

Код:

General
Complete name                    : KVN.26.10.2014.SATRip.avi
Format                           : AVI
Format/Info                      : Audio Video Interleave
File size                        : 1.48 GiB
Duration                         : 1h 49mn
Overall bit rate                 : 1 935 Kbps
Writing library                  : VirtualDub build 35491/release

Video
ID                               : 0
Format                           : MPEG-4 Visual
Format profile                   : Advanced Simple@L5
Format settings, BVOP            : Yes
Format settings, QPel            : No
Format settings, GMC             : No warppoints
Format settings, Matrix          : Default (H.263)
Codec ID                         : XVID
Codec ID/Hint                    : XviD
Duration                         : 1h 49mn
Bit rate                         : 1 797 Kbps
Width                            : 704 pixels
Height                           : 448 pixels
Display aspect ratio             : 1.571
Frame rate                       : 25.000 fps
Color space                      : YUV
Chroma subsampling               : 4:2:0
Bit depth                        : 8 bits
Scan type                        : Progressive
Bits/(Pixel*Frame)               : 0.228
Stream size                      : 1.37 GiB (93%)
Writing library                  : XviD 1.2.1 (UTC 2008-12-04)

Audio
ID                               : 1
Format                           : MPEG Audio
Format version                   : Version 1
Format profile                   : Layer 3
Mode                             : Joint stereo
Mode extension                   : MS Stereo
Codec ID                         : 55
Codec ID/Hint                    : MP3
Duration                         : 1h 49mn
Bit rate mode                    : Constant
Bit rate                         : 128 Kbps
Channel(s)                       : 2 channels
Sampling rate                    : 48.0 KHz
Video delay                      : 20ms
Stream size                      : 100 MiB (7%)
Alignment                        : Split accross interleaves
Interleave, duration             : 40 ms (1.00 video frame)
Interleave, preload duration     : 500 ms


info [Профиль]  [ЛС] 

AFILEXO

Пол: Пол:Муж

Стаж: 7 лет 1 месяц

Сообщений: 523

Россия
Рейтинг

post 27-Окт-2014 10:57 (спустя 17 часов) [-]0[+]

[Цитировать] 

Земляки Белгородцы жгут!
info [Профиль]  [ЛС] 
Показать сообщения:    
Ответить на тему

Текущее время: 10-Дек 11:05

Часовой пояс: GMT + 4



Вы не можете начинать темы
Вы не можете отвечать на сообщения
Вы не можете редактировать свои сообщения
Вы не можете удалять свои сообщения
Вы не можете голосовать в опросах
Вы не можете прикреплять файлы к сообщениям
Вы не можете скачивать файлы