Ошибка

Трансформеры: Эпоха истребления / Transformers: Age of Extinction (Майкл Бэй) [2014 г., фантастика, боевик, приключения, BDRemux 1080p]

Ответить на тему
 
Автор Сообщение

Basketballman

Пол: Пол:Муж

Стаж: 7 лет 1 месяц

Сообщений: 280

Россия
Рейтинг

post 21-Окт-2014 17:33 2[+]

[Цитировать] 

Трансформеры: Эпоха истребления / Transformers: Age of Extinction

Год выпуска: 2014
Страна: США, Китай
Жанр: фантастика, боевик, приключения
Продолжительность: 02:45:07
Перевод: профессиональный (полное дублирование) [лицензия / iTunes]
Субтитры: английские
Режиссер:
  • Майкл Бэй
В ролях:
  • Марк Уолберг, Никола Пельтц, Стэнли Туччи, Келси Грэммер, София Майлс, Эбигейл Клейн, Джек Рейнор, Титус Уэлливер, Питер Каллен, ТиДжей Миллер

Описание: Автоботы и десептиконы оставили человечество собирать планету по кусочкам. Между тем группа могущественных бизнесменов и гениальных ученых пытается извлечь уроки из ошибок прошлого и улучшить технологии до такой степени, чтобы выйти за пределы контролируемого ранее. В это время другая группа — древних мощных трансформеров — берет Землю под прицел.


Качество: BDRemux 1080p
Формат: MKV
Видео кодек: MPEG-4
Аудио кодек: AC3, TrueHD
Видео: 1920x1080, 23.976 fps, 24.3 Mбит/с
Аудио 1: Russian: AC3, 6 ch, 384 Kbps
Аудио 2: English: AC3, 6 ch, 640 Kbps
Аудио 3: English: TrueHD, 8 ch, 4388 Kbps
Субтитры: SRT

Sample
General
Unique ID : 216868158082006975086916740927931906113 (0xA32749B7F8915E7A9C86BB0905697841)
Complete name : D:\Кино\Transformers - Age of Extinction BDRemux.mkv
Format : Matroska
Format version : Version 2
File size : 34.1 GiB
Duration : 2h 45mn
Overall bit rate mode : Variable
Overall bit rate : 29.6 Mbps
Movie name : Трансформеры: Эпоха истребления
Encoded date : UTC 2014-10-20 20:45:44
Writing application : mkvmerge v5.6.0 ('Kenya Kane') built on May 27 2012 16:44:04
Writing library : libebml v1.2.3 + libmatroska v1.3.0

Video
ID : 1
Format : AVC
Format/Info : Advanced Video Codec
Format profile : High@L4.1
Format settings, CABAC : Yes
Format settings, ReFrames : 4 frames
Codec ID : V_MPEG4/ISO/AVC
Duration : 2h 45mn
Bit rate mode : Variable
Maximum bit rate : 33.0 Mbps
Width : 1 920 pixels
Height : 1 080 pixels
Display aspect ratio : 16:9
Frame rate mode : Constant
Frame rate : 23.976 fps
Color space : YUV
Chroma subsampling : 4:2:0
Bit depth : 8 bits
Scan type : Progressive
Default : Yes
Forced : No

Audio #1
ID : 2
Format : AC-3
Format/Info : Audio Coding 3
Mode extension : CM (complete main)
Format settings, Endianness : Big
Codec ID : A_AC3
Duration : 2h 45mn
Bit rate mode : Constant
Bit rate : 384 Kbps
Channel count : 6 channels
Channel positions : Front: L C R, Side: L R, LFE
Sampling rate : 48.0 KHz
Bit depth : 16 bits
Compression mode : Lossy
Stream size : 454 MiB (1%)
Title : Дублированный (iTunes Russia)
Language : Russian
Default : Yes
Forced : No

Audio #2
ID : 3
Format : AC-3
Format/Info : Audio Coding 3
Mode extension : CM (complete main)
Format settings, Endianness : Big
Codec ID : A_AC3
Duration : 2h 45mn
Bit rate mode : Constant
Bit rate : 640 Kbps
Channel count : 6 channels
Channel positions : Front: L C R, Side: L R, LFE
Sampling rate : 48.0 KHz
Bit depth : 16 bits
Compression mode : Lossy
Stream size : 756 MiB (2%)
Language : English
Default : No
Forced : No

Audio #3
ID : 4
Format : TrueHD
Codec ID : A_TRUEHD
Duration : 2h 45mn
Bit rate mode : Variable
Maximum bit rate : 7 662 Kbps
Channel count : 8 channels
Channel positions : Front: L C R, Side: L R, Back: L R, LFE
Sampling rate : 48.0 KHz
Compression mode : Lossless
Language : English
Default : No
Forced : No

Text
ID : 5
Format : UTF-8
Codec ID : S_TEXT/UTF8
Codec ID/Info : UTF-8 Plain Text
Title : Full
Language : English
Default : No
Forced : No

Menu
00:00:00.000 : en:Chapter 01
00:06:51.577 : en:Chapter 02
00:14:33.580 : en:Chapter 03
00:21:37.462 : en:Chapter 04
00:30:13.393 : en:Chapter 05
00:38:45.989 : en:Chapter 06
00:46:08.056 : en:Chapter 07
00:51:39.513 : en:Chapter 08
00:59:09.337 : en:Chapter 09
01:07:48.647 : en:Chapter 10
01:15:14.551 : en:Chapter 11
01:23:25.291 : en:Chapter 12
01:29:14.724 : en:Chapter 13
01:37:16.956 : en:Chapter 14
01:44:35.435 : en:Chapter 15
01:51:25.053 : en:Chapter 16
01:57:47.935 : en:Chapter 17
02:04:48.480 : en:Chapter 18
02:12:35.864 : en:Chapter 19
02:21:04.205 : en:Chapter 20
02:28:48.669 : en:Chapter 21
02:37:09.628 : en:Chapter 22
02:45:07.063 : en:Chapter 23
info [Профиль]  [ЛС] 

denichel1996

Пол: Пол:Муж

Стаж: 3 года 9 месяцев

Сообщений: 12

Албания
Рейтинг

post 21-Окт-2014 19:51 (спустя 2 часа 17 минут) [-]2[+]

[Цитировать] 

Присоединяюсь . Улыбаюсь
info [Профиль]  [ЛС] 

Di Griz

Пол: Пол:Муж

Стаж: 7 лет 8 месяцев

Сообщений: 3402

Россия
Рейтинг

post 22-Окт-2014 01:17 (спустя 5 часов) [-]0[+]

[Цитировать] 

Basketballman
А видео на мониторе аналогичного разрешения тоже с полосками или без?

_________________
info [Профиль]  [ЛС] 

AlexFormula

Пол: Пол:Муж

Стаж: 7 лет 8 месяцев

Сообщений: 16621

Рейтинг

post 22-Окт-2014 07:51 (спустя 6 часов) [-]0[+]

[Цитировать] 

Di Griz писал(а):

Basketballman
А видео на мониторе аналогичного разрешения тоже с полосками или без?
С полосками.
info [Профиль]  [ЛС] 

Dispel

Пол: Пол:Муж

Стаж: 6 лет 11 месяцев

Сообщений: 62

Латвия
Рейтинг

post 22-Окт-2014 13:52 (спустя 6 часов) [-]-1[+]

[Цитировать] 

почему-то мой MPC HC не проигрывает этот файл

хотя VLC нормально работает
info [Профиль]  [ЛС] 

Ян

Пол: Пол:Муж

Стаж: 5 лет 2 месяца

Сообщений: 330

Россия
Рейтинг

post 11-Ноя-2014 21:18 (спустя 20 дней) [-]0[+]

[Цитировать] 

Смотрел в кино. Мое мнение, что сюжет уже кровь из пальца. Шутки не смешные, совсем детские какие то, автоботов сделали в "одежде" металлический плащ.. как то глупо если честно. Но это все мелочи. Уже не те трансформеры. Самые хорошие это 1-3. Смотреть можно..но на 5ых не пойду. =)

_________________
info [Профиль]  [ЛС] 

post 11-Дек-2014 01:07 (спустя 29 дней) [-]0[+]

Топик был перенесен из форума Новинки 2013-2014 (Web-DL, DVD, HD DVD, Blu-ray, HD Rips) в форум Зарубежное кино | HD DVD и Blu-ray

BZzz
 
Показать сообщения:    
Ответить на тему

Текущее время: 05-Дек 08:33

Часовой пояс: GMT + 4



Вы не можете начинать темы
Вы не можете отвечать на сообщения
Вы не можете редактировать свои сообщения
Вы не можете удалять свои сообщения
Вы не можете голосовать в опросах
Вы не можете прикреплять файлы к сообщениям
Вы не можете скачивать файлы