Ошибка

КВН-2014. Высшая лига. Летний кубок в Сочи (2014.09.14) [2014 г., юмор / сатира / ТВ-шоу, HDTVRip]

Ответить на тему
 
Автор Сообщение

Abrahimum

Пол: Пол:Муж

Стаж: 2 года 7 месяцев

Сообщений: 3

Рейтинг

post 04-Окт-2014 10:48 1[+]

[Цитировать] 


КВН-2014. Высшая лига. Летний кубок в Сочи
Эфир 2014.09.14

"Год выпуска: 2014
Страна: Россия
Жанр: юмор / сатира / ТВ-шоу

Ведущий: Александр Масляков

Команды: "ГородЪ ПятигорскЪ", "Триод и Диод", "Парапапарам", Сборная Камызякского края по КВНу

Жюри: Екатерина Стриженова, Александр Стриженов, Михаил Галустян, Валдис Пельш, Юлий Гусман

Описание: После неудачного сезона Премьер-лиги снова возвращаемся к Вышке. В этом году первую после летнего перерыва игру мы увидим необычно рано, всего через неделю после окончания Премьерки. В этой игре снова играли уже привычным для Летнего кубка составом команд и их помощников. Команды хорошо загодя подготовились, смотреть игру было довольно приятно.

Продолжительность: 01:53:52

Качество видео: HDTVRip
Видеокодек: MPEG-4 AVC/H.264
Битрейт видео: 4500 kb/s
Размер кадра: 1280x720

Аудиокодек: AC3, 6 ch
Битрейт аудио: 384 kb/s
General
Complete name : H:\Торрент\КВН.2014.Летний.Кубок.КВН.14.09.2014.HDTV.720p.mkv
Format : Matroska
File size : 3.90 GiB
Duration : 1h 53mn
Overall bit rate : 4 903 Kbps
Encoded date : UTC 2014-09-14 15:15:29
Writing application : mkvmerge v7.2.0 ('On Every Street') 32bit built on Sep 13 2014 15:42:11
Writing library : libebml v1.3.0 + libmatroska v1.4.1

Video
ID : 1
Format : AVC
Format/Info : Advanced Video Codec
Format profile : High@L4.1
Format settings, CABAC : Yes
Format settings, ReFrames : 2 frames
Muxing mode : Container profile=Unknown@4.1
Codec ID : V_MPEG4/ISO/AVC
Duration : 1h 53mn
Bit rate : 4 500 Kbps
Width : 1 280 pixels
Height : 720 pixels
Display aspect ratio : 16:9
Frame rate : 25.000 fps
Color space : YUV
Chroma subsampling : 4:2:0
Bit depth : 8 bits
Scan type : Progressive
Bits/(Pixel*Frame) : 0.195
Stream size : 3.52 GiB (90%)
Writing library : x264 core 142 r2431 ac76440
Encoding settings : cabac=1 / ref=1 / deblock=1:-1:-1 / analyse=0x3:0x113 / me=dia / subme=1 / psy=1 / psy_rd=1.00:0.15 / mixed_ref=0 / me_range=16 / chroma_me=1 / trellis=1 / 8x8dct=1 / cqm=0 / deadzone=21,11 / fast_pskip=1 / chroma_qp_offset=-1 / threads=12 / lookahead_threads=2 / sliced_threads=0 / nr=0 / decimate=1 / interlaced=0 / bluray_compat=0 / constrained_intra=0 / bframes=1 / b_pyramid=0 / b_adapt=1 / b_bias=0 / direct=1 / weightb=1 / open_gop=0 / weightp=2 / keyint=250 / keyint_min=25 / scenecut=40 / intra_refresh=0 / rc_lookahead=40 / rc=abr / mbtree=1 / bitrate=4500 / ratetol=1.0 / qcomp=0.60 / qpmin=0 / qpmax=69 / qpstep=4 / vbv_maxrate=62500 / vbv_bufsize=78125 / nal_hrd=none / filler=0 / ip_ratio=1.40 / aq=1:1.00
Matrix coefficients : BT.709-5, BT.1361, IEC 61966-2-4 709, SMPTE RP177

Audio
ID : 2
Format : AC-3
Format/Info : Audio Coding 3
Mode extension : CM (complete main)
Codec ID : A_AC3
Duration : 1h 53mn
Bit rate mode : Constant
Bit rate : 384 Kbps
Channel(s) : 6 channels
Channel positions : Front: L C R, Side: L R, LFE
Sampling rate : 48.0 KHz
Bit depth : 16 bits
Stream size : 313 MiB (8%)
Language : Russian
info [Профиль]  [ЛС] 

post 04-Окт-2014 13:02 (спустя 2 часа 14 минут) [-]0[+]

Топик был перенесен из форума Анонсы в форум Развлекательные телепередачи и шоу

L
 
Показать сообщения:    
Ответить на тему

Текущее время: 05-Дек 04:21

Часовой пояс: GMT + 4



Вы не можете начинать темы
Вы не можете отвечать на сообщения
Вы не можете редактировать свои сообщения
Вы не можете удалять свои сообщения
Вы не можете голосовать в опросах
Вы не можете прикреплять файлы к сообщениям
Вы не можете скачивать файлы