Ошибка

Помолвлена с незнакомцем / Mikakunin de Shinkoukei / Engaged to the Unidentified [OVA] [1 из 1] [2014] [комедия, повседневность] [DVDRip] [Субтитры (JAP)]

Ответить на тему
 
Автор Сообщение

Алмаз

Пол: Пол:Муж

Стаж: 6 лет 4 месяца

Сообщений: 1836

Россия
Рейтинг

post 13-Сен-2014 02:39 0[+]

[Цитировать] 


Год выпуска: 2014
Страна: Япония
Жанр: комедия, повседневность
Продолжительность: 1 эп., 12 мин.
Тип: OVA
Перевод:
  • русские субтитры от Itseksee

Режиссер: Фудзивара Ёсиюки
Студия: Dogakobo
Описание:
Кобэни Ёномори, симпатичная девушка и отличная хозяйка, получила на 16-й день рождения самый необычный подарок. Мать объявила, что по слову покойного деда, главы клана, Кобэни с детства помолвлена с наследником семьи Мицуминэ, своим ровесником по имени Хакуя. Сам суженый знатного рода, но вырос в горной деревне, и, чтобы обрести городской шик и приобщиться к цивилизации, отныне будет жить с ними – а вот, кстати, и он. Окончательно добило Ёномори-младшую явление вихря энергии в виде малышки Масиро Мицуминэ, которая с порога заявила, что не отдаст братика абы кому и быстро научит невестку жить по закону гор!
Впрочем, все вышло не так уж плохо. Малолетняя «золовка», поняв, что брату досталась вовсе не белоручка, быстро подобрела, а Бэнио, старшая из сестер Ёномори, ненавязчиво показала гостье, кто в доме хозяйка, да так, что бедная Масиро стала прятаться от будущей «сватьи». Ну а Хакуя оказался, словно самурай иной эпохи – загадочный, невозмутимый, не тратящий слов зря, но говорящий только по делу. Из обрывков фраз и прочих намеков Кобэни поняла, что помолвка возникла не на пустом месте, и их с Хакуей связывает давняя история. А раз так, незачем спешить - надо разобраться в себе и дать парню шанс. Не зря говорят – браки по расчету всегда удачны, если расчет был хороший!
© Hollow, World Art

Доп. информация: ОВА приурочена к выходу пятого тома манги.
Информационные ссылки: AniDB || World Art || MAL
Качество: DVDRip
Энкод: sergey_krs
Тип видео: без хардсаба
Формат: mkv
Видео: x264 (Hi10p), 1280x720, ~3,8 Mbps, 23.976 fps
Аудио JAP: AC3, 48000Hz, ~192 Kbps, 2ch

Код:

General
Unique ID                                : 199692083856635303387165331485379038156 (0x963B4BE095FA28CAA4333B658EC08BCC)
Complete name                            : Z:\Mikakunin de Shinkoukei [BDRip] [1080p]\Bonus\OVA\Mikakunin de Shinkoukei - OAD [DVDRip].mkv
Format                                   : Matroska
Format version                           : Version 2
File size                                : 324 MiB
Duration                                 : 11mn 8s
Overall bit rate                         : 4 071 Kbps
Encoded date                             : UTC 2014-08-29 12:17:38
Writing application                      : mkvmerge v4.5.0 ('Speed of Light') сборка от Feb  1 2011 02:10:32
Writing library                          : libebml v1.2.0 + libmatroska v1.1.0

Video
ID                                       : 1
Format                                   : AVC
Format/Info                              : Advanced Video Codec
Format profile                           : High 10@L4.1
Format settings, CABAC                   : Yes
Format settings, ReFrames                : 9 frames
Codec ID                                 : V_MPEG4/ISO/AVC
Duration                                 : 11mn 8s
Bit rate                                 : 3 798 Kbps
Width                                    : 1 280 pixels
Height                                   : 720 pixels
Display aspect ratio                     : 16:9
Frame rate mode                          : Constant
Frame rate                               : 23.976 fps
Color space                              : YUV
Chroma subsampling                       : 4:2:0
Bit depth                                : 10 bits
Scan type                                : Progressive
Bits/(Pixel*Frame)                       : 0.172
Stream size                              : 303 MiB (93%)
Writing library                          : x264 core 133 r2334 a3ac64b
Encoding settings                        : cabac=1 / ref=9 / deblock=1:-2:-2 / analyse=0x3:0x133 / me=umh / subme=9 / psy=1 / psy_rd=0.70:0.00 / mixed_ref=1 / me_range=32 / chroma_me=1 / trellis=2 / 8x8dct=1 / cqm=0 / deadzone=21,11 / fast_pskip=1 / chroma_qp_offset=-2 / threads=6 / lookahead_threads=1 / sliced_threads=0 / nr=0 / decimate=0 / interlaced=0 / bluray_compat=0 / constrained_intra=0 / bframes=12 / b_pyramid=2 / b_adapt=2 / b_bias=0 / direct=3 / weightb=1 / open_gop=0 / weightp=2 / keyint=240 / keyint_min=25 / scenecut=40 / intra_refresh=0 / rc=crf / mbtree=0 / crf=16.0 / qcomp=0.60 / qpmin=8 / qpmax=38 / qpstep=4 / ip_ratio=1.40 / pb_ratio=1.30 / aq=1:1.00
Language                                 : Japanese
Default                                  : Yes
Forced                                   : No

Audio
ID                                       : 2
Format                                   : AC-3
Format/Info                              : Audio Coding 3
Mode extension                           : CM (complete main)
Format settings, Endianness              : Big
Codec ID                                 : A_AC3
Duration                                 : 11mn 8s
Bit rate mode                            : Constant
Bit rate                                 : 192 Kbps
Channel(s)                               : 2 channels
Channel positions                        : Front: L R
Sampling rate                            : 48.0 KHz
Bit depth                                : 16 bits
Compression mode                         : Lossy
Stream size                              : 15.3 MiB (5%)
Language                                 : Japanese
Default                                  : Yes
Forced                                   : No

  • Данный релиз предназначен для просмотра на ПК. Воспроизведение на иных проигрывателях не гарантируется.
  • Данный релиз содержит 10-битное видео (Hi10p). Для корректного воспроизведения обязательно используйте кодеки, поддерживающие 10-битное видео.

info [Профиль]  [ЛС] 

ZashikiWarashi

Пол: Пол:Муж

Стаж: 4 года 1 месяц

Сообщений: 461

Предупреждений: 1

Россия
Рейтинг

post 13-Сен-2014 15:11 (спустя 12 часов) [-]0[+]

[Цитировать] 

Хорощо, но мало :С
info [Профиль]  [ЛС] 

Алмаз

Пол: Пол:Муж

Стаж: 6 лет 4 месяца

Сообщений: 1836

Россия
Рейтинг

post 13-Сен-2014 17:36 (спустя 2 часа 24 минуты) [-]0[+]

[Цитировать] 

Щито поделать.

_________________
Паранойя - чрезвычайно утешительное состояние ума. Если вам кажется, что против вас что-то замышляют - значит вы что-то да стоите! (с) Гильбран Трус (Митчелл Сэнди - Игра предателя)
info [Профиль]  [ЛС] 

ZashikiWarashi

Пол: Пол:Муж

Стаж: 4 года 1 месяц

Сообщений: 461

Предупреждений: 1

Россия
Рейтинг

post 13-Сен-2014 21:35 (спустя 3 часа) [-]0[+]

[Цитировать] 

Искать ещё дозу >_>
info [Профиль]  [ЛС] 
Показать сообщения:    
Ответить на тему

Текущее время: 05-Дек 22:46

Часовой пояс: GMT + 4



Вы не можете начинать темы
Вы не можете отвечать на сообщения
Вы не можете редактировать свои сообщения
Вы не можете удалять свои сообщения
Вы не можете голосовать в опросах
Вы не можете прикреплять файлы к сообщениям
Вы не можете скачивать файлы