Ошибка

Годзилла / Godzilla (Гарет Эдвардс) [2014, фантастика, боевик, триллер, BDRip 3D SBS 1080p] Горизонтальная анаморфная стереопара

Ответить на тему
 
Автор Сообщение

zayatz

Пол: Пол:Муж

Стаж: 3 года 10 месяцев

Сообщений: 530

Россия
Рейтинг

post 10-Сен-2014 20:57 0[+]

[Цитировать] 

Годзилла / Godzilla

«The king will rise»

Страна: США , Япония
Жанр: фантастика, боевик, триллер
Год выпуска: 2014
Продолжительность: 02:03:07
Перевод:
Профессиональный (дублированный) [Лицензия CEE]
Профессиональный (дублированный) [Лицензия CEE] - украинский
Субтитры: русские Russian (Forced, iTunes), Russian (iTunes), Ukrainian (Forced, iTunes), Ukrainian (iTunes), English, English (SDH), English (SDH-COLORED)
Оригинальная дорожка: английский
Главы: есть
Режиссер: Гарет Эдвардс
В ролях: Аарон Тейлор-Джонсон / Aaron Taylor-Johnson (Ford Brody), Кен Ватанабе / Ken Watanabe (Dr. Ishiro Serizawa), Элизабет Олсен / Elizabeth Olsen (Elle Brody), Салли Хокинс / Sally Hawkins (Vivienne Graham), Брайан Крэнстон / Bryan Cranston (Joe Brody), Дэвид Стрэтэйрн / David Strathairn (Admiral William Stenz), Ричард Т. Джонс / Richard T. Jones (Captain Russell Hampton), Карсон Болд / Carson Bolde (Sam Brody)
Описание: Человечество случайно разбудило гигантское древнее существо, что повлекло за собой ужасающие последствия…

Качество видео: BDRip 3D SBS
Формат видео: MKV
Видео: 1920x1080 at 23.976 fps, x264@L4.1, CRF=16.7, ~13.1 Mbps avg
Aудио#1: Russian: 48 kHz, AC3, 3/2 (L,C,R,l,r) + LFE ch, ~448.00 kbps avg
Aудио#2:Ukrainian: 48 kHz, AC3, 3/2 (L,C,R,l,r) + LFE ch, ~448.00 kbps avg
Aудио#3: English: 48 kHz, DTS, 3/2 (L,C,R,l,r) + LFE ch, ~1536.00 kbps avg
General
Unique ID : 208028759056838005365582304318540842672 (0x9C80E1B2E7C17709A23D187FD28186B0)
Complete name : F:\Godzilla.2014.1080p.3D.BluRay.Half-SBS.Rus.Ukr.Eng.HDCLUB.mkv
Format : Matroska
Format version : Version 2
File size : 13.6 GiB
Duration : 2h 3mn
Overall bit rate : 15.8 Mbps
Movie name : Godzilla (2014) [3D] - Release for HDCLUB
Encoded date : UTC 2014-09-09 20:35:23
Writing application : mkvmerge v3.4.0 ('Rapunzel') built on May 15 2010 09:38:20
Writing library : libebml v0.8.0 + libmatroska v0.9.0

Video
ID : 1
Format : AVC
Format/Info : Advanced Video Codec
Format profile : High@L4.1
Format settings, CABAC : Yes
Format settings, ReFrames : 4 frames
Codec ID : V_MPEG4/ISO/AVC
Duration : 2h 3mn
Bit rate : 13.1 Mbps
Width : 1 920 pixels
Height : 1 080 pixels
Display aspect ratio : 16:9
Frame rate mode : Constant
Frame rate : 23.976 fps
Color space : YUV
Chroma subsampling : 4:2:0
Bit depth : 8 bits
Scan type : Progressive
Bits/(Pixel*Frame) : 0.263
Stream size : 11.2 GiB (83%)
Title : Godzilla (2014) [3D] - Release for HDCLUB
Writing library : x264 core 133 r2334 a3ac64b
Encoding settings : cabac=1 / ref=4 / deblock=1:-3:-3 / analyse=0x3:0x133 / me=umh / subme=10 / psy=1 / psy_rd=1.00:0.00 / mixed_ref=1 / me_range=24 / chroma_me=1 / trellis=2 / 8x8dct=1 / cqm=0 / deadzone=21,11 / fast_pskip=0 / chroma_qp_offset=-2 / threads=12 / lookahead_threads=2 / sliced_threads=0 / nr=0 / decimate=0 / interlaced=0 / bluray_compat=0 / constrained_intra=0 / bframes=8 / b_pyramid=2 / b_adapt=2 / b_bias=0 / direct=3 / weightb=1 / open_gop=0 / weightp=2 / keyint=250 / keyint_min=23 / scenecut=40 / intra_refresh=0 / rc=crf / mbtree=0 / crf=16.7 / qcomp=0.65 / qpmin=0 / qpmax=69 / qpstep=4 / ip_ratio=1.40 / pb_ratio=1.20 / aq=1:0.85 / zones=404,2947,crf=15/6537,9274,crf=14/19117,19297,crf=15/21658,21967,crf=15/22520,25501,crf=16/25502,27188,crf=14.5/28392,28682,crf=14/29404,32661,crf=15.5/32763,36139,crf=16/41185,42455,crf=14.5/42456,42934,crf=15/43293,43461,crf=15/43768,44561,crf=15/45738,46770,crf=15.5/46771,46840,crf=14/46956,47085,crf=16/47086,47165,crf=16/47342,47805,crf=16/48155,48365,crf=15.5/48575,48714,crf=16/48786,49295,crf=15.5/49296,49538,crf=15.5/49841,49924,crf=16/50066,50224,crf=14/50576,50587,crf=14.5/50656,52162,crf=14/52475,52596,crf=16/52773,53150,crf=15.5/53272,55497,crf=15.5/58273,59595,crf=15.5/61449,67942,crf=16/68854,69474,crf=16/69876,69976,crf=16/70259,70440,crf=14.5/71170,71735,crf=15.5/72219,74174,crf=14/74798,74971,crf=16/74972,85525,crf=15/85787,86485,crf=16/89894,90697,crf=16/90783,90988,crf=14.5/91327,92221,crf=15/92909,93105,crf=15.5/94803,97569,crf=16/105115,113554,crf=15/113729,113914,crf=16/119807,129403,crf=16.2/134276,134484,crf=14.5/134881,135018,crf=15.5/135019,135919,crf=15/136111,161236,crf=15
Language : English
Default : Yes
Forced : No

Audio #1
ID : 2
Format : AC-3
Format/Info : Audio Coding 3
Mode extension : CM (complete main)
Format settings, Endianness : Big
Codec ID : A_AC3
Duration : 2h 3mn
Bit rate mode : Constant
Bit rate : 448 Kbps
Channel(s) : 6 channels
Channel positions : Front: L C R, Side: L R, LFE
Sampling rate : 48.0 KHz
Bit depth : 16 bits
Compression mode : Lossy
Stream size : 395 MiB (3%)
Title : AC3 5.1 @ 448 kbps - DUB, Blu-ray CEE
Language : Russian
Default : Yes
Forced : No

Audio #2
ID : 3
Format : AC-3
Format/Info : Audio Coding 3
Mode extension : CM (complete main)
Format settings, Endianness : Big
Codec ID : A_AC3
Duration : 2h 3mn
Bit rate mode : Constant
Bit rate : 448 Kbps
Channel(s) : 6 channels
Channel positions : Front: L C R, Side: L R, LFE
Sampling rate : 48.0 KHz
Bit depth : 16 bits
Compression mode : Lossy
Stream size : 395 MiB (3%)
Title : AC3 5.1 @ 448 kbps - DUB, Blu-ray CEE
Language : Ukrainian
Default : No
Forced : No

Audio #3
ID : 4
Format : DTS
Format/Info : Digital Theater Systems
Mode : 16
Format settings, Endianness : Big
Codec ID : A_DTS
Duration : 2h 3mn
Bit rate mode : Constant
Bit rate : 1 509 Kbps
Channel(s) : 6 channels
Channel positions : Front: L C R, Side: L R, LFE
Sampling rate : 48.0 KHz
Bit depth : 24 bits
Compression mode : Lossy
Delay relative to video : 11ms
Stream size : 1.30 GiB (10%)
Title : DTS 5.1 @ 1536 kbps
Language : English
Default : No
Forced : No

Text #1
ID : 5
Format : UTF-8
Codec ID : S_TEXT/UTF8
Codec ID/Info : UTF-8 Plain Text
Title : Forced
Language : Russian
Default : Yes
Forced : No

Text #2
ID : 6
Format : UTF-8
Codec ID : S_TEXT/UTF8
Codec ID/Info : UTF-8 Plain Text
Language : Russian
Default : No
Forced : No

Text #3
ID : 7
Format : UTF-8
Codec ID : S_TEXT/UTF8
Codec ID/Info : UTF-8 Plain Text
Title : Forced
Language : Ukrainian
Default : No
Forced : No

Text #4
ID : 8
Format : UTF-8
Codec ID : S_TEXT/UTF8
Codec ID/Info : UTF-8 Plain Text
Language : Ukrainian
Default : No
Forced : No

Text #5
ID : 9
Format : UTF-8
Codec ID : S_TEXT/UTF8
Codec ID/Info : UTF-8 Plain Text
Language : English
Default : No
Forced : No

Text #6
ID : 10
Format : UTF-8
Codec ID : S_TEXT/UTF8
Codec ID/Info : UTF-8 Plain Text
Title : SDH
Language : English
Default : No
Forced : No

Text #7
ID : 11
Format : UTF-8
Codec ID : S_TEXT/UTF8
Codec ID/Info : UTF-8 Plain Text
Title : SDH-COLORED
Language : English
Default : No
Forced : No

Menu
00:00:00.000 : en:00:00:00.000
00:09:22.562 : en:00:09:22.562
00:19:03.225 : en:00:19:03.225
00:30:25.532 : en:00:30:25.532
00:39:10.098 : en:00:39:10.098
00:49:43.439 : en:00:49:43.439
00:59:27.189 : en:00:59:27.189
01:09:50.186 : en:01:09:50.186
01:19:11.246 : en:01:19:11.246
01:29:57.267 : en:01:29:57.267
01:40:14.759 : en:01:40:14.759
01:52:14.728 : en:01:52:14.728
01:56:10.088 : en:01:56:10.088
Релиз группы:
info [Профиль]  [ЛС] 

post 10-Сен-2014 20:57 (спустя 39 секунд) [-]0[+]

Топик был перенесен из форума Оформление раздач (Кинематограф) в форум 3D Новинки

maratdnb
 

post 08-Ноя-2014 11:30 (спустя 1 месяц 27 дней) [-]0[+]

Топик был перенесен из форума 3D Новинки в форум Новинки (3D)

L
 

post 18-Ноя-2014 17:02 (спустя 2 месяца 7 дней) [-]0[+]

Топик был перенесен из форума Новинки (3D) в форум 3D

BZzz
 
Показать сообщения:    
Ответить на тему

Текущее время: 05-Дек 08:33

Часовой пояс: GMT + 4



Вы не можете начинать темы
Вы не можете отвечать на сообщения
Вы не можете редактировать свои сообщения
Вы не можете удалять свои сообщения
Вы не можете голосовать в опросах
Вы не можете прикреплять файлы к сообщениям
Вы не можете скачивать файлы