Ошибка

До окончания фрилича осталось:


Нозоми и Кимио / Nozo X Kimi OVA [OVA] [1 из 2] [2014] [комедия, этти] [DVDRip] [Любительский (JAP)]

Ответить на тему
 
Автор Сообщение

vadimklose

Пол: Пол:Муж

Стаж: 7 лет 6 месяцев

Сообщений: 1511

Великобритания
Рейтинг

post 08-Сен-2014 13:13 0[+]

[Цитировать] 

Нозоми и Кимио / Nozo X Kimi OVA
Год выпуска: 2014
Страна: Япония
Жанр: комедия, этти
Продолжительность:~ 25 мин
Перевод: Любительский двухголосый (loster01 & Emeri)
Субтитры: нет

Режиссер: Хонна Вако

Описание: Веселая повесть о двух соседях Суге Кимио и Камина Нодзоми. Бедняга однажды попал в неприятную ситуацию. По воле неприятного случая Суге приходится прятаться в шкафчике женской раздевалки. Почему? Он просто хотел прогнать оттуда своих друзей извращуг, а в итоге сам оказался внутри, да еще и в ту самую секунду, когда девушки шли переодеваться после физкультуры. Его жизнь кончена? До конца старшей школы его заклеймят конченым ивращугой? Но нет! Владелицей того самого шкафчика оказывается Кимио Нозоми, "очень необычная" девушка и она прикрывает Сугу, но в обмен на одно одолжение...

Качество: DVDRip
Формат: mkv
Видео кодек: AVC
Аудио кодек: AAC
Видео: 720x408 23.976fps 3 500 Kbps, 8 bit
Аудио#1: 48000Hz stereo 192 Kbps (Russian)
Аудио#2: 48000Hz stereo 192 Kbps (Japanese)
Релиз от: Ani-Mania
General
Unique ID : 188040763787147498315006656543226346838 (0x8D7755723BB7DA0D83E68A3EB4BC3D56)
Complete name : F:\Anime\[Ani-Mania]_Nozo_X_Kimi_[OVA]_[01]_[rus_jap]_[720x408_x264].mkv
Format : Matroska
Format version : Version 4 / Version 2
File size : 649 MiB
Duration : 23mn 19s
Overall bit rate : 3 890 Kbps
Encoded date : UTC 2014-09-06 12:41:46
Writing application : mkvmerge v7.1.0 ('Good Love') 64bit built on Jul 27 2014 13:06:55
Writing library : libebml v1.3.0 + libmatroska v1.4.1
DURATION : 00:23:19.360000000
NUMBER_OF_FRAMES : 43730
NUMBER_OF_BYTES : 33584640
_STATISTICS_WRITING_APP : mkvmerge v7.1.0 ('Good Love') 64bit built on Jul 27 2014 13:06:55
_STATISTICS_WRITING_DATE_UTC : 2014-09-06 12:41:46
_STATISTICS_TAGS : BPS DURATION NUMBER_OF_FRAMES NUMBER_OF_BYTES

Video
ID : 1
Format : AVC
Format/Info : Advanced Video Codec
Format profile : High@L3.0
Format settings, CABAC : Yes
Format settings, ReFrames : 4 frames
Codec ID : V_MPEG4/ISO/AVC
Duration : 23mn 19s
Bit rate : 3 500 Kbps
Width : 720 pixels
Height : 408 pixels
Display aspect ratio : 16:9
Frame rate mode : Constant
Frame rate : 23.976 fps
Color space : YUV
Chroma subsampling : 4:2:0
Bit depth : 8 bits
Scan type : Progressive
Bits/(Pixel*Frame) : 0.497
Stream size : 572 MiB (88%)
Writing library : x264 core 130 r2273 b3065e6
Encoding settings : cabac=1 / ref=1 / deblock=1:-1:-1 / analyse=0x3:0x113 / me=hex / subme=2 / psy=1 / psy_rd=1.00:0.10 / mixed_ref=0 / me_range=16 / chroma_me=1 / trellis=0 / 8x8dct=1 / cqm=0 / deadzone=21,11 / fast_pskip=1 / chroma_qp_offset=0 / threads=12 / lookahead_threads=3 / sliced_threads=0 / nr=0 / decimate=1 / interlaced=0 / bluray_compat=0 / constrained_intra=0 / bframes=3 / b_pyramid=2 / b_adapt=1 / b_bias=0 / direct=3 / weightb=1 / open_gop=0 / weightp=1 / keyint=250 / keyint_min=23 / scenecut=40 / intra_refresh=0 / rc_lookahead=10 / rc=2pass / mbtree=1 / bitrate=3500 / ratetol=1.0 / qcomp=0.60 / qpmin=0 / qpmax=69 / qpstep=4 / cplxblur=20.0 / qblur=0.5 / ip_ratio=1.40 / aq=1:1.00
Language : Russian
Default : Yes
Forced : No

Audio #1
ID : 2
Format : AC-3
Format/Info : Audio Coding 3
Mode extension : CM (complete main)
Format settings, Endianness : Big
Codec ID : A_AC3
Duration : 23mn 19s
Bit rate mode : Constant
Bit rate : 192 Kbps
Channel(s) : 2 channels
Channel positions : Front: L R
Sampling rate : 48.0 KHz
Bit depth : 16 bits
Compression mode : Lossy
Stream size : 32.0 MiB (5%)
Title : Тимркан Сиюхов и Маргарита Щелкунова
Language : Russian
Default : Yes
Forced : No

Audio #2
ID : 3
Format : AC-3
Format/Info : Audio Coding 3
Mode extension : CM (complete main)
Format settings, Endianness : Big
Codec ID : A_AC3
Duration : 23mn 19s
Bit rate mode : Constant
Bit rate : 192 Kbps
Channel(s) : 2 channels
Channel positions : Front: L R
Sampling rate : 48.0 KHz
Bit depth : 16 bits
Compression mode : Lossy
Stream size : 32.0 MiB (5%)
Language : Japanese
Default : No
Forced : No

info [Профиль]  [ЛС] 
Показать сообщения:    
Ответить на тему

Текущее время: 10-Дек 16:54

Часовой пояс: GMT + 4



Вы не можете начинать темы
Вы не можете отвечать на сообщения
Вы не можете редактировать свои сообщения
Вы не можете удалять свои сообщения
Вы не можете голосовать в опросах
Вы не можете прикреплять файлы к сообщениям
Вы не можете скачивать файлы