Ошибка

Секретные материалы Мстителей: Черная Вдова и Каратель / Avengers Confidential: Black Widow & Punisher (Кенити Симидзу) [2014, мультфильм, HDRip]

Ответить на тему
 
Автор Сообщение

BZzz

Пол: Пол:Муж

Стаж: 5 лет 1 месяц

Сообщений: 3647

Россия
Рейтинг

post 26-Авг-2014 02:27 0[+]

[Цитировать] 

Секретные материалы Мстителей: Черная Вдова и Каратель / Avengers Confidential: Black Widow & Punisher




Год выпуска: 2014
Страна: США
Жанр: мультфильм
Продолжительность: 01:22:42
Перевод: Профессиональный (многоголосый закадровый)[лицензия]

Режиссер: Кенити Симидзу

В ролях: Дженнифер Карпентер (Jennifer Carpenter), Брайан Блум (Brian Bloom), Джон Бентли (John Bentley), Грант Джордж (Grant George), Кайл Хеберт (Kyle Hebert), Кари Уолгрен (Kari Wahlgren), Эрик Бауза (Eric Bauza), Джейби Бланк (JB Blanc)

Описание: После вмешательства в сверхсекретные миссии ЩИТа Каратель попадает под контроль Черной вдовы. По приказу Ника Фьюри они отправляются на миссию по борьбе с глобальной террористической организацией Левиафан, которая планирует продать украденные у ЩИТа технологии любому, кто больше заплатит. Теперь убийца и шпионка должны работать вместе, чтобы предотвратить попадание информации не в те руки. На чашу весов положена судьба мира и Мстителей.

Рейтинг MPAA:



Качество: HDRip
Формат: AVI
Видео кодек: XviD
Аудио кодек: AC3
Видео: 720x400 (16:9), 23.976 fps, XviD, 1 879 Kbps
Аудио #1: AC3, 384 Kbps, 48.0 KHz, 6 ch
General
Complete name : S3kr3tHye.m4t3ryaly.Mst1tel3j.2014.P.HDRip.avi
Format : AVI
Format/Info : Audio Video Interleave
File size : 1.37 GiB
Duration : 1h 22mn
Overall bit rate : 2 366 Kbps
Writing application : VirtualDubMod 1.5.10.2 (build 2540/release)
Writing library : VirtualDubMod build 2540/release

Video
ID : 0
Format : MPEG-4 Visual
Format profile : Advanced Simple@L5
Format settings, BVOP : Yes
Format settings, QPel : No
Format settings, GMC : No warppoints
Format settings, Matrix : Default (MPEG)
Codec ID : XVID
Codec ID/Hint : XviD
Duration : 1h 22mn
Bit rate : 1 879 Kbps
Width : 720 pixels
Height : 400 pixels
Display aspect ratio : 16:9
Frame rate : 23.976 fps
Color space : YUV
Chroma subsampling : 4:2:0
Bit depth : 8 bits
Scan type : Progressive
Bits/(Pixel*Frame) : 0.272
Stream size : 1.09 GiB (79%)
Writing library : XviD 1.2.1 (UTC 2008-12-04)

Audio
ID : 1
Format : AC-3
Format/Info : Audio Coding 3
Mode extension : CM (complete main)
Codec ID : 2000
Duration : 1h 22mn
Bit rate mode : Constant
Bit rate : 384 Kbps
Channel(s) : 6 channels
Channel positions : Front: L C R, Side: L R, LFE
Sampling rate : 48.0 KHz
Bit depth : 16 bits
Stream size : 227 MiB (16%)
Alignment : Split accross interleaves
info [Профиль]  [ЛС] 

Enix

Стаж: 6 лет 8 месяцев

Сообщений: 848

Рейтинг

post 26-Авг-2014 13:07 (спустя 10 часов) [-]1[+]

[Цитировать] 

Marvel Anime что ли?
info [Профиль]  [ЛС] 

Hint

Пол: Пол:Муж

Стаж: 7 лет 8 месяцев

Сообщений: 4

Рейтинг

post 26-Авг-2014 13:55 (спустя 48 минут) [-]0[+]

[Цитировать] 

У всех рот открыт на скринах)
info [Профиль]  [ЛС] 

Sirgeras

Пол: Пол:Муж

Стаж: 6 лет 8 месяцев

Сообщений: 80

Россия
Рейтинг

post 26-Авг-2014 14:47 (спустя 51 минута) [-]1[+]

[Цитировать] 

не нравится аниме от марвел.
info [Профиль]  [ЛС] 

Ritsu

Пол: Пол:Муж

Стаж: 5 лет 5 месяцев

Сообщений: 856

Австралия
Рейтинг

post 26-Авг-2014 15:34 (спустя 47 минут) [-]0[+]

[Цитировать] 

Ох уж этот мэдхаус. Всё никак не успокоятся. -__-

_________________
Флудите вместе с Рицу и будет вам счастье! ^__^

"...Зажжем рок в этой дыре!.."
info [Профиль]  [ЛС] 

beatrazor

Пол: Пол:Муж

Стаж: 6 лет 6 месяцев

Сообщений: 34

Рейтинг

post 26-Авг-2014 17:56 (спустя 2 часа 21 минута) [-]0[+]

[Цитировать] 

Анимэшников повыползало недовольных.) Ничего против анимэх не имею, но не фанат. Я всеми (почти) Марвел Анимэ доволен. Надеюсь, этот мульт будет на уровне.
info [Профиль]  [ЛС] 

ExFeith

Пол: Пол:Муж

Стаж: 2 года 11 месяцев

Сообщений: 111

Россия
Рейтинг

post 26-Авг-2014 17:59 (спустя 2 минуты) [-]0[+]

[Цитировать] 

Неплохой мультфильм, но был бы лучше, если бы рассказывал действительно только про Вдову и Карателя kolob_102
Смотрел чисто из-за Карателя...персонаж хороший, но вот мало где его можно увидеть kolob_106

af Спасибо за раздачу! af
info [Профиль]  [ЛС] 

yuzer

Пол: Пол:Муж

Стаж: 6 лет 8 месяцев

Сообщений: 23

Россия
Рейтинг

post 26-Авг-2014 19:18 (спустя 1 час 19 минут) [-]-3[+]

[Цитировать] 

Полным *** надо быть чтоб так файл назвать...
 !  BZzz:
а вам надо научиться переименовывать файл самому, так как вам угодно!
info [Профиль]  [ЛС] 

XATOR

Стаж: 7 лет 1 месяц

Сообщений: 15

СССР
Рейтинг

post 28-Авг-2014 18:09 (спустя 1 день 22 часа) [-]0[+]

[Цитировать] 

Сюда бы крови добавить, цены бы не было. А то куча трупов и не капельки... Ох уж этот детский рейтинг...
Но посмотреть можно.
info [Профиль]  [ЛС] 

post 14-Сен-2014 10:48 (спустя 16 дней) [-]0[+]

Топик был перенесен из форума Новинки 2013-2014 (Rips) в форум Зарубежные полнометражные мультфильмы

L
 
Показать сообщения:    
Ответить на тему

Текущее время: 08-Дек 22:14

Часовой пояс: GMT + 4



Вы не можете начинать темы
Вы не можете отвечать на сообщения
Вы не можете редактировать свои сообщения
Вы не можете удалять свои сообщения
Вы не можете голосовать в опросах
Вы не можете прикреплять файлы к сообщениям
Вы не можете скачивать файлы