Ошибка

Механика сердца/ Jack et la mecanique du coeur (Стефан Берла, Матиас Мальзьё) [2014, Мультфильм, мюзикл, фэнтези, драма, мелодрама, приключения, HDRip]

Ответить на тему
 
Автор Сообщение

L

Пол: Пол:Муж

Стаж: 6 лет 8 месяцев

Сообщений: 10829

Украина
Рейтинг

post 25-Авг-2014 08:28 1[+]

[Цитировать] 

Механика сердца/ Jack et la mécanique du coeur
Год выпуска: 2013
Жанр: Мультфильм, мюзикл, фэнтези, драма, мелодрама, приключения
Выпущено: Франция, Бельгия, Canal+ [fr], Ciné, Duran, EuropaCorp, Fonds Film in Vlaanderen, France 3 Cinéma
Продолжительность: 01:32:32
Перевод: Профессиональный многоголосый [AlexFilm]
Режиссер: Стефан Берла, Матиас Мальзьё
В ролях: Матиас Мальзьё, Оливия Руис, Гран Кор Маляд, Жан Рошфор, Росси де Пальма, Мари Винсент, Эмили Луазо, Артур Х., Дани
О фильме: Джек родился в Эдинбурге, в «самый холодный день на свете», и сердце его мгновенно оледенело. Брошенного матерью мальчика усыновляет акушерка-волшебница, Докторша Мадлен. Она вставляет ему в грудь часы, которые помогают сердцу биться, но влюбляться Джеку нельзя — такого пылкого чувства хрупкая сердечная механика не выдержит. Однако подросший Джек невольно нарушает запрет, увидев на прогулке маленькую уличную певицу…
Качество: HDRip
Формат: avi
Видео: XviD, 1722 Кбит/с, 720x400
Аудио: AC3, 6 ch, 384 Кбит/с
Общее
Полное имя : D:\Temp.Video\Mehanika.Serdtsa.2013.P.HDRip.1400Mb.avi
Формат : AVI
Формат/Информация : Audio Video Interleave
Размер файла : 1,37 Гбайт
Продолжительность : 1 ч. 32 м.
Общий поток : 2115 Кбит/сек
Программа кодирования : VirtualDubMod 1.5.10.3 | www.virtualdub-fr.org || (build 2550/release)
Библиотека кодирования : VirtualDubMod build 2550/release

Видео
Идентификатор : 0
Формат : MPEG-4 Visual
Профиль формата : Advanced Simple@L5
Параметр BVOP формата : 2
Параметр QPel формата : Нет
Параметр GMC формата : Без точки перехода
Параметр матрицы формата : Default (H.263)
Идентификатор кодека : XVID
Идентификатор кодека/Подсказка : XviD
Продолжительность : 1 ч. 32 м.
Битрейт : 1722 Кбит/сек
Ширина : 720 пикселей
Высота : 400 пикселей
Соотношение сторон : 16:9
Частота кадров : 24,000 кадра/сек
Цветовое пространство : YUV
Субдискретизация насыщенности : 4:2:0
Битовая глубина : 8 бит
Тип развёртки : Прогрессивная
Метод сжатия : С потерями
Бит/(Пиксели*Кадры) : 0.249
Размер потока : 1,11 Гбайт (81%)
Библиотека кодирования : XviD 1.2.1 (UTC 2008-12-04)

Аудио
Идентификатор : 1
Формат : AC-3
Формат/Информация : Audio Coding 3
Расширение режима : CM (complete main)
Параметр Endianness формата : Big
Идентификатор кодека : 2000
Продолжительность : 1 ч. 32 м.
Вид битрейта : Постоянный
Битрейт : 384 Кбит/сек
Каналы : 6 каналов
Расположение каналов : Front: L C R, Side: L R, LFE
Частота : 48,0 КГц
Битовая глубина : 16 бит
Метод сжатия : С потерями
Размер потока : 254 Мбайт (18%)
Выравнивание : Разделение по промежуткам
Продолжительность промежутка : 42 мс. (1,00 видеокадр)
Время предзагрузки промежутка : 500 мс.
info [Профиль]  [ЛС] 

DerTWOeR

Пол: Пол:Муж

Стаж: 4 года 7 месяцев

Сообщений: 8

Россия
Рейтинг

post 25-Авг-2014 11:07 (спустя 2 часа 38 минут) [-]0[+]

[Цитировать] 

Вы абсолютно уверены, что BDRip в данном случае уместно?
info [Профиль]  [ЛС] 

L

Пол: Пол:Муж

Стаж: 6 лет 8 месяцев

Сообщений: 10829

Украина
Рейтинг

post 25-Авг-2014 11:24 (спустя 16 минут) [-]0[+]

[Цитировать] 

Я не знаю, с чего кодируют авторы.

_________________
info [Профиль]  [ЛС] 

JohnKox

Пол: Пол:Муж

Стаж: 5 лет 5 месяцев

Сообщений: 191

Россия
Рейтинг

post 25-Авг-2014 14:37 (спустя 3 часа) [-]0[+]

[Цитировать] 

Механика сердца/ Jack et la mecanique du coeur (Стефан Берла, Матиас Мальзьё) [2014, Мультфильм, мюзикл, фэнтези, драма, мелодрама, приключения, BDRip]
Качество: HDRip

_________________
info [Профиль]  [ЛС] 

Archangel13

Стаж: 7 лет 3 месяца

Сообщений: 16

Россия
Рейтинг

post 25-Авг-2014 20:25 (спустя 5 часов) [-]-4[+]

[Цитировать] 

Хм... Не знаю, что курили авторы сего произведения, но штука была жутко забористая!
info [Профиль]  [ЛС] 

vikdemon

Стаж: 4 года 10 месяцев

Сообщений: 1

Рейтинг

post 28-Авг-2014 01:18 (спустя 2 дня 4 часа) [-]0[+]

[Цитировать] 

Просто А*****Й мультфильм! Пересматривал уже 4 раза! С монзель смотреть самое оно, !но до конца не досматривать) kolob_192
info [Профиль]  [ЛС] 

post 14-Сен-2014 10:48 (спустя 17 дней) [-]0[+]

Топик был перенесен из форума Новинки 2013-2014 (Rips) в форум Зарубежные полнометражные мультфильмы

L
 

Grifonhard

Стаж: 6 лет 8 месяцев

Сообщений: 47

Предупреждений: 1

Рейтинг

post 31-Янв-2015 21:40 (спустя 5 месяцев 3 дня) [-]0[+]

[Цитировать] 

Всё таки у французов непревзойдённое чувство прекрасного.
info [Профиль]  [ЛС] 
Показать сообщения:    
Ответить на тему

Текущее время: 09-Дек 02:11

Часовой пояс: GMT + 4



Вы не можете начинать темы
Вы не можете отвечать на сообщения
Вы не можете редактировать свои сообщения
Вы не можете удалять свои сообщения
Вы не можете голосовать в опросах
Вы не можете прикреплять файлы к сообщениям
Вы не можете скачивать файлы