Ошибка

До окончания фрилича осталось:


Космос: Пространство и время / Cosmos: A SpaceTime Odyssey / (Сезон 1 Серии 1-13 из 13) (Билл Поуп / Билл Поуп / Bill Pope) [2014г., документальный, HDTV 720p] (FOX)+Original

Ответить на тему
 
Автор Сообщение

Noldor

Стаж: 4 года 11 месяцев

Сообщений: 1229

Рейтинг

post 17-Авг-2014 20:59 3[+]

[Цитировать] 

pic="http://i67.fastpic.ru/big/2014/0817/b7/e40e0c7f12bf0831d458bbabca5bc6b7.jpg"
Космос: Пространство и время / Cosmos: A SpaceTime Odyssey


  • Год выпуска: 2014
  • Страна: США
  • Жанр: Документальный
  • Продолжительность: ~00:43:00
  • Перевод: Профессиональный (одноголосый закадровый) FOX / Original
  • Субтитры: Отсутсвуют
  • Режиссёр: Билл Поуп / Bill Pope

  • В ролях:
    Нил Тайсон, Питер Эмшвиллер, Бетани Леви, Мехди Мерали, Nadia Rochelle Pfarr, Пол Телфер


  • Документальный сериал рассказывает о последних научных открытиях, которые были сделаны в области астронавтики, астрофизики и других наук. Сериал «Космос: Путешествие во времени» является продолжением научно-популярной серии фильмов «Космос: Персональное путешествие с Карлом Саганом» и отражает события последних трех десятилетий. Астрофизик Нил Деграсс Тайсон с соавторами (среди которых вдова Сагана Энн Драйэн) расскажет об открытых законах мира космоса, о возможности межпланетных путешествий и наблюдении за космическими процессами. Все самые сложные понятия представлены с потрясающей четкостью, в повествовании соединяются научная точность и эмоциональность. Трехмерная компьютерная графика, уникальные съемки и использование спецэффектов делают каждый эпизод захватывающим и необычным.


   

   

  • Качество 1-3-13 серии: HDTV 720p
  • Формат: MKV
  • Аудио кодек : AC3
  • Видео кодек : AVC
  • Видео: 1280x720 (16:9), 23.976 fps, MPEG-4 AVC 3677 kbps, 0.166 bit/pixel
  • Аудио №1: RUS 48 kHz, AC3 Dolby Digital, 2 ch, ~192.00 kbps avg
  • Аудио №2: ENG 48 kHz, AC3 Dolby Digital,6 ch, ~448.00 kbps avg
  • Качество 2 серии : WEB-DL 720p
  • Формат: MKV
  • Аудио кодек : AC3, AAC
  • Видео кодек : AVC
  • Видео: 1280x720 (16:9), ~2400 kbps, 23,976 fps, 0.11 bpp
  • Аудио №1: RUS 48 kHz, AC3 Dolby Digital, 2 ch, ~192.00 kbps avg
  • Аудио №2: ENG 24 kHz, AAC, 2 ch, ~64.00 kbps avg


1 сезон 1 серия - Standing Up in the Milky Way
1 сезон 2 серия - Some of the Things That Molecules Do
1 сезон 3 серия - When Knowledge Conquered Fear
1 сезон 4 серия - A Sky Full of Ghosts
1 сезон 5 серия - Hiding in the Light
1 сезон 6 серия - Deeper, Deeper, Deeper Still
1 сезон 7 серия - The Clean Room
1 сезон 8 серия - Sisters of the Sun
1 сезон 9 серия - The Lost Worlds of Planet Earth
1 сезон 10 серия - The Electric Boy
1 сезон 11 серия - The Immortals
1 сезон 12 серия - The World Set Free
1 сезон 13 серия - Unafraid of the Dark
General
Unique ID : 179768446296033730563499843544974518374 (0x873E24B4677B3D83AD9FA5BDC3A66866)
Complete name : E:\Cosmos A SpaceTime Odyssey\Cosmos.A.SpaceTime.Odyssey.s01e01.HDTV.720p.NewStudio.TV.mkv
Format : Matroska
Format version : Version 2
File size : 1.35 GiB
Duration : 43mn 47s
Overall bit rate : 4 405 Kbps
Encoded date : UTC 2014-03-10 17:55:22
Writing application : mkvmerge v2.9.9 ('Tutu') built on Nov 25 2009 21:13:32
Writing library : libebml v0.7.9 + libmatroska v0.8.1

Video
ID : 1
Format : AVC
Format/Info : Advanced Video Codec
Format profile : High@L4.1
Format settings, CABAC : Yes
Format settings, ReFrames : 5 frames
Codec ID : V_MPEG4/ISO/AVC
Duration : 43mn 47s
Bit rate : 3 677 Kbps
Width : 1 280 pixels
Height : 720 pixels
Display aspect ratio : 16:9
Frame rate mode : Constant
Frame rate : 23.976 fps
Color space : YUV
Chroma subsampling : 4:2:0
Bit depth : 8 bits
Scan type : Progressive
Bits/(Pixel*Frame) : 0.166
Stream size : 1.12 GiB (83%)
Writing library : x264 core 142 r2389 956c8d8
Encoding settings : cabac=1 / ref=5 / deblock=1:0:0 / analyse=0x3:0x113 / me=umh / subme=8 / psy=1 / psy_rd=1.00:0.00 / mixed_ref=1 / me_range=16 / chroma_me=1 / trellis=1 / 8x8dct=1 / cqm=0 / deadzone=21,11 / fast_pskip=1 / chroma_qp_offset=-2 / threads=18 / lookahead_threads=4 / sliced_threads=0 / nr=0 / decimate=1 / interlaced=0 / bluray_compat=0 / constrained_intra=0 / bframes=5 / b_pyramid=2 / b_adapt=2 / b_bias=0 / direct=3 / weightb=1 / open_gop=0 / weightp=2 / keyint=250 / keyint_min=23 / scenecut=40 / intra_refresh=0 / rc_lookahead=50 / rc=crf / mbtree=1 / crf=20.0 / qcomp=0.60 / qpmin=0 / qpmax=69 / qpstep=4 / ip_ratio=1.40 / aq=1:1.00
Default : No
Forced : No

Audio #1
ID : 2
Format : AC-3
Format/Info : Audio Coding 3
Mode extension : CM (complete main)
Format settings, Endianness : Big
Codec ID : A_AC3
Duration : 43mn 47s
Bit rate mode : Constant
Bit rate : 192 Kbps
Channel count : 2 channels
Channel positions : Front: L R
Sampling rate : 48.0 KHz
Bit depth : 16 bits
Compression mode : Lossy
Delay relative to video : -84ms
Stream size : 60.1 MiB (4%)
Language : Russian
Default : Yes
Forced : Yes

Audio #2
ID : 3
Format : AC-3
Format/Info : Audio Coding 3
Mode extension : CM (complete main)
Format settings, Endianness : Big
Codec ID : A_AC3
Duration : 43mn 47s
Bit rate mode : Constant
Bit rate : 448 Kbps
Channel count : 6 channels
Channel positions : Front: L C R, Side: L R, LFE
Sampling rate : 48.0 KHz
Bit depth : 16 bits
Compression mode : Lossy
Delay relative to video : -84ms
Stream size : 140 MiB (10%)
Default : No
Forced : No

General
Unique ID : 247598370317331991960650461077338707910 (0xBA45B628A2EE0FF68B9E7A9AC65DD7C6)
Complete name : E:\Cosmos.A.Spacetime.Odyssey.2014.S01.720p.BDRip.Rus.Eng.HDCLUB\Cosmos.A.Spacetime.Odyssey.2014.S01E02.720p.BDRip.Rus.Eng.HDCLUB.mkv
Format : Matroska
Format version : Version 4 / Version 2
File size : 3.50 GiB
Duration : 45mn 14s
Overall bit rate : 11.1 Mbps
Movie name : Cosmos 2014 S01E02 Some of the Things That Molecules Do - Release Messafan for HDCLUB
Encoded date : UTC 2014-07-02 22:57:52
Writing application : mkvmerge v6.9.1 ('Blue Panther') 64bit built on Apr 18 2014 18:23:38
Writing library : libebml v1.3.0 + libmatroska v1.4.1

Video
ID : 1
Format : AVC
Format/Info : Advanced Video Codec
Format profile : High@L4.1
Format settings, CABAC : Yes
Format settings, ReFrames : 9 frames
Codec ID : V_MPEG4/ISO/AVC
Duration : 45mn 14s
Bit rate : 9 357 Kbps
Width : 1 280 pixels
Height : 720 pixels
Display aspect ratio : 16:9
Frame rate mode : Constant
Frame rate : 23.976 fps
Color space : YUV
Chroma subsampling : 4:2:0
Bit depth : 8 bits
Scan type : Progressive
Bits/(Pixel*Frame) : 0.423
Stream size : 2.89 GiB (83%)
Title : Cosmos 2014 S01E02 Some of the Things That Molecules Do - Release for HDCLUB
Writing library : x264 core 142 r2431kMod ac76440
Encoding settings : cabac=1 / ref=9 / deblock=1:-3:-3 / analyse=0x3:0x113 / me=umh / subme=10 / psy=1 / fade_compensate=0.00 / psy_rd=1.01:0.05 / mixed_ref=1 / me_range=32 / chroma_me=1 / trellis=2 / 8x8dct=1 / cqm=0 / deadzone=21,11 / fast_pskip=0 / chroma_qp_offset=-5 / threads=6 / lookahead_threads=1 / sliced_threads=0 / nr=0 / decimate=1 / interlaced=0 / bluray_compat=0 / constrained_intra=0 / fgo=0 / bframes=10 / b_pyramid=2 / b_adapt=2 / b_bias=0 / direct=3 / weightb=1 / open_gop=0 / weightp=1 / keyint=240 / keyint_min=23 / scenecut=40 / intra_refresh=0 / rc_lookahead=60 / rc=2pass / mbtree=1 / bitrate=9357 / ratetol=1.0 / qcomp=0.80 / qpmin=0 / qpmax=69 / qpstep=4 / cplxblur=20.0 / qblur=0.5 / vbv_maxrate=50000 / vbv_bufsize=62500 / nal_hrd=none / filler=0 / ip_ratio=1.25 / aq=1:0.70
Language : English
Default : Yes
Forced : No

Audio #1
ID : 2
Format : AC-3
Format/Info : Audio Coding 3
Mode extension : CM (complete main)
Format settings, Endianness : Big
Codec ID : A_AC3
Duration : 45mn 14s
Bit rate mode : Constant
Bit rate : 192 Kbps
Channel count : 2 channels
Channel positions : Front: L R
Sampling rate : 48.0 KHz
Bit depth : 16 bits
Compression mode : Lossy
Stream size : 62.1 MiB (2%)
Title : Nat Geo Rus / AC3 2.0 / 192kbps / 48KHz
Language : Russian
Default : Yes
Forced : No

Audio #2
ID : 3
Format : DTS
Format/Info : Digital Theater Systems
Mode : 16
Format settings, Endianness : Big
Codec ID : A_DTS
Duration : 45mn 14s
Bit rate mode : Constant
Bit rate : 1 509 Kbps
Channel count : 6 channels
Channel positions : Front: L C R, Side: L R, LFE
Sampling rate : 48.0 KHz
Bit depth : 24 bits
Compression mode : Lossy
Stream size : 488 MiB (14%)
Title : DTS / 5.1 / 1509 kbps / 48KHz
Language : English
Default : No
Forced : No

Menu
00:00:00.000 : en:Chapter 01
00:02:15.760 : en:Chapter 02
00:05:19.610 : en:Chapter 03
00:08:28.132 : en:Chapter 04
00:14:29.577 : en:Chapter 05
00:15:59.416 : en:Chapter 06
00:22:03.447 : en:Chapter 07
00:28:32.377 : en:Chapter 08
00:33:34.220 : en:Chapter 09
00:35:28.292 : en:Chapter 10
00:39:32.495 : en:Chapter 11
00:42:34.343 : en:Chapter 12





    info [Профиль]  [ЛС] 

    mazikal

    Пол: Пол:Муж

    Стаж: 7 лет 6 месяцев

    Сообщений: 44

    Россия
    Рейтинг

    post 18-Авг-2014 00:15 (спустя 3 часа) [-]1[+]

    [Цитировать] 

    спс большое!
    info [Профиль]  [ЛС] 

    Arxont

    Стаж: 6 лет 8 месяцев

    Сообщений: 46

    Рейтинг

    post 18-Авг-2014 00:17 (спустя 1 минута) [-]1[+]

    [Цитировать] 

    глоток свежего воздуха перед сезоном сериалов) спасибо!)
    info [Профиль]  [ЛС] 

    778

    Стаж: 7 лет 8 месяцев

    Сообщений: 195

    СССР
    Рейтинг

    post 18-Авг-2014 20:23 (спустя 20 часов) [-]2[+]

    [Цитировать] 

    Arxont писал(а):

    глоток свежего воздуха перед сезоном сериалов) спасибо!)
    Для большинства это настоящее откровение. Путь навстречу науке, погрязшим в царстве обскурантизма и "горячих фактов". Обратите внимание на рейтинг картины на imdb.com.

    _________________
    info [Профиль]  [ЛС] 
    Показать сообщения:    
    Ответить на тему

    Текущее время: 10-Дек 13:00

    Часовой пояс: GMT + 4



    Вы не можете начинать темы
    Вы не можете отвечать на сообщения
    Вы не можете редактировать свои сообщения
    Вы не можете удалять свои сообщения
    Вы не можете голосовать в опросах
    Вы не можете прикреплять файлы к сообщениям
    Вы не можете скачивать файлы