Ошибка

Новый Человек-паук: Высокое напряжение / The Amazing Spider-Man 2 (Марк Уэбб) [2014, фэнтези, боевик, приключения , BDRip 1080p 3D]

Ответить на тему
 
Автор Сообщение

koss555

Пол: Пол:Муж

Стаж: 4 года 11 месяцев

Сообщений: 1549

Россия
Рейтинг

post 07-Авг-2014 23:35 2[+]

[Цитировать] 

Новый Человек-паук: Высокое напряжение / The Amazing Spider-Man 2
«No more secrets»

Год выпуска: 2014
Страна: США
Жанр: фэнтези, боевик, приключения
Продолжительность: 02:21:34
Перевод: Дублированный [цифровая лицензия iTunes]
Субтитры: Русские, английские

Режиссер: Марк Уэбб
Сценарий: Алекс Куртцман, Роберто Орси, Джефф Пинкнер
Продюсер: Ави Арад, Мэттью Толмак, Алекс Куртцман
Оператор: Дэниэл Миндел
Композитор: Джонни Марр, Фаррелл Уильямс, Ханс Циммер
Художник: Марк Фридберг, Ким Дженнингс, Ричард Л. Джонсон
Монтаж: Пьетро Скалия

В ролях: Эндрю Гарфилд / Andrew Garfield (Spider-Man / Peter Parker), Эмма Стоун / Emma Stone (Gwen Stacy), Джейми Фокс / Jamie Foxx (Electro / Max Dillon), Дэйн ДеХаан / Dane DeHaan (Green Goblin / Harry Osborn), Салли Филд / Sally Field (Aunt May), Колм Фиор / Colm Feore (Donald Menken), Фелисити Джонс / Felicity Jones (Felicia), Пол Джаматти / Paul Giamatti (Aleksei Sytsevich)


Описание: Питер Паркер под маской Человека-паука по-прежнему спасает мир от злодеев и преступников, а свободное время проводит со своей возлюбленной Гвен, но школьная пора близится к концу, и впереди героев ждет взрослая жизнь. Питер помнит о том, что дал отцу Гвен слово навсегда уйти из жизни девушки, тем самым больше не подвергая ее опасности. Однако сдержать это обещание не так просто. Судьба готовит Питеру сюрпризы: на его пути появится новый противник — Электро, а также ему будет суждено вновь встретиться с давним приятелем Гарри Озборном и узнать много нового о прошлом своей семьи.

Бюджет: $200 000 000
Сборы в США: $202 644 001
Сборы в мире: + $505 406 836 = $708 050 837 сборы
Сборы в России: $20 748 139
Зрители: Китай 8.94 млн , Мексика 7.3 млн , Корея Южная 4.13 млн
Премьера (мир): 10 апреля 2014
Премьера (РФ): 24 апреля 2014, «WDSSPR» 3D
Релиз на DVD: 21 августа 2014 «CP Дистрибуция»
Релиз на Blu-Ray: 21 августа 2014 «CP Дистрибуция»
Рейтинг MPAA: Детям до 13 лет просмотр не желателен



Качество: BDRip 1080p 3D
Формат: MKV
Видео кодек: AVC
Аудио кодеk: AC3
Видео: 1920x1080 (16:9), 23.976 fps, AVC, 11.5 Mbps
Аудио: Аудио #1 Русский : AC3, 384 Kbps, 48.0 KHz, 6 ch
Аудио #2Украинский: AC3, 192 Kbps, 48.0 KHz, 2 ch
Аудио #3Английский: AC3, 640 Kbps, 48.0 KHz, 6 ch
· Крис Купер ранее снимался в фильме «Фаворит» (2003), в котором вместе с ним играли Тоби Магуайр и Элизабет Бэнкс, снимавшиеся в предыдущей серии фильмов о Человеке-пауке.

· Дэйн ДеХаан, Олден Эйренрайк, Брэйди Корбет, Эдди Редмэйн, Сэм Клафлин, Дуглас Бут и Бойд Холбрук рассматривались на роль Гарри Осборна. 3 декабря 2012 года эту роль получил Дэйн ДеХаан.

· В августе 2011 года, за 11 месяцев до выхода фильма «Новый Человек-паук» (2012), студия Sony объявила дату выхода сиквела.

· 28 сентября 2012 года было подтверждено, что Эндрю Гарфилд будет исполнять роль Человека-паука. Одновременно с этим Марк Уэбб был утвержден на место режиссера сиквела.

· Шейлин Вудли была выбрана на роль Мэри Джейн Уотсон, но в июне, когда она уже три дня снималась, было объявлено, что Мэри Джейн была вырезана из сюжета и появится лишь в третьей части, чтобы сосредоточиться на отношениях Питера Паркера и Гвен Стейси. Также стало известно, что роль могут отдать другой актрисе.

· 1 ноября 2012 года стало известно, что с Джейми Фоксом ведутся переговоры по поводу роли главного злодея. Позже подтвердилась информация, что противником Человека-паука станет Электро. А 3 декабря 2012 года Джейми Фокс официально получил эту роль.

· Джейми Фокс настоял на том, чтобы Электро не носил классический костюм из комиксов, а вместо этого его внешний вид будет основан на Ultimate-версии комиксов.

· Режиссер Марк Уэбб решил снимать фильм на пленку 35 мм вместо цифровых камер Red Epic, на которые был снят первый фильм.

· Сара Гадон, Джейн Леви и Кристен Стюарт рассматривались на роль Мэри Джейн, но в итоге от этого персонажа решили отказаться.

· Съемки автомобильной погони проходили в Рочестере, Нью-Йорк. В Рочестере также расположен главный офис компании Kodak, и именно на пленку Kodak был снят фильм.

· Крис Купер (который играет Нормана Осборна в этом втором фильме обновленной франшизы о Человеке-пауке) рассматривался на роль доктора Октавиуса в фильме «Человек-паук 2» (2004).

· Колм Фиор хотел сыграть злодея по имени Стервятник, однако в итоге актер получил роль представителя Oscorp — Дональда.

· Специально для этого фильма костюм Человека-паука изменили и придали ему вид максимально схожий с костюмом, в котором он впервые появился на страницах комиксов.

· Чтобы снять бой на Таймс-сквер, декораторы соорудили в натуральную величину точную копию северной части самой известной площади Нью-Йорка.

· В здании корпорации Оскорп есть застекленные секции: одна с металлическими крыльями и другая с экзоскелетом с четырьмя щупальцами. Это намек на антагонистов Человека-паука — Стервятника (Адриан Тумс) и доктора Осьминога (Отто Октавиус).

· Ближе к концу фильма Гвен Стейси носит пальто цвета мяты и фиолетовую юбку, такую же одежду она носит в комиксе «The Night Gwen Stacy Died» (Ночь, когда Гвен Стейси умерла).
General
Complete name : Amazing.SpiderMan.2.2014.D.BDRip.1080p.3D..mkv
Format : Matroska
File size : 12.9 GiB
Duration : 2h 21mn
Overall bit rate : 13.0 Mbps
Movie name : Новый Человек-паук: Высокое напряжение / The Amazing Spider-Man 2 (2014) 3D
Encoded date : UTC 2014-08-05 01:49:00
Writing application : mkvmerge v5.8.0 ('No Sleep / Pillow') built on Sep 2 2012 15:37:04
Writing library : libebml v1.2.3 + libmatroska v1.3.0

Video
ID : 1
Format : AVC
Format/Info : Advanced Video Codec
Format profile : High@L4.1
Format settings, CABAC : Yes
Format settings, ReFrames : 4 frames
Muxing mode : Container profile=Unknown@4.1
Codec ID : V_MPEG4/ISO/AVC
Duration : 2h 21mn
Bit rate : 11.5 Mbps
Width : 1 920 pixels
Height : 1 080 pixels
Display aspect ratio : 16:9
Frame rate : 23.976 fps
Color space : YUV
Chroma subsampling : 4:2:0
Bit depth : 8 bits
Scan type : Progressive
Bits/(Pixel*Frame) : 0.232
Stream size : 11.4 GiB (89%)
Title : BDRip by Ash61
Writing library : x264 core 138 r2358 9e941d1
Encoding settings : cabac=1 / ref=4 / deblock=1:-3:-3 / analyse=0x3:0x113 / me=umh / subme=10 / psy=1 / psy_rd=1.00:0.15 / mixed_ref=1 / me_range=32 / chroma_me=1 / trellis=2 / 8x8dct=1 / cqm=0 / deadzone=21,11 / fast_pskip=1 / chroma_qp_offset=-3 / threads=12 / lookahead_threads=2 / sliced_threads=0 / nr=0 / decimate=1 / interlaced=0 / bluray_compat=0 / constrained_intra=0 / bframes=9 / b_pyramid=2 / b_adapt=2 / b_bias=0 / direct=3 / weightb=1 / open_gop=0 / weightp=2 / keyint=250 / keyint_min=23 / scenecut=40 / intra_refresh=0 / rc_lookahead=60 / rc=crf / mbtree=1 / crf=17.5 / qcomp=0.70 / qpmin=0 / qpmax=69 / qpstep=4 / vbv_maxrate=40000 / vbv_bufsize=30000 / crf_max=0.0 / nal_hrd=none / frame-packing=4 / ip_ratio=1.40 / aq=1:0.70

Audio #1
ID : 2
Format : AC-3
Format/Info : Audio Coding 3
Mode extension : CM (complete main)
Codec ID : A_AC3
Duration : 2h 21mn
Bit rate mode : Constant
Bit rate : 384 Kbps
Channel(s) : 6 channels
Channel positions : Front: L C R, Side: L R, LFE
Sampling rate : 48.0 KHz
Bit depth : 16 bits
Stream size : 389 MiB (3%)
Title : Дубляж - iTunes
Language : Russian

Audio #2
ID : 3
Format : AC-3
Format/Info : Audio Coding 3
Mode extension : CM (complete main)
Codec ID : A_AC3
Duration : 2h 21mn
Bit rate mode : Constant
Bit rate : 192 Kbps
Channel(s) : 2 channels
Channel positions : Front: L R
Sampling rate : 48.0 KHz
Bit depth : 16 bits
Stream size : 194 MiB (1%)
Title : Дубляж - iTunes
Language : Ukrainian

Audio #3
ID : 4
Format : AC-3
Format/Info : Audio Coding 3
Mode extension : CM (complete main)
Codec ID : A_AC3
Duration : 2h 21mn
Bit rate mode : Constant
Bit rate : 640 Kbps
Channel(s) : 6 channels
Channel positions : Front: L C R, Side: L R, LFE
Sampling rate : 48.0 KHz
Bit depth : 16 bits
Stream size : 648 MiB (5%)
Title : Original - BD 3D

Text #1
ID : 5
Format : UTF-8
Codec ID : S_TEXT/UTF8
Codec ID/Info : UTF-8 Plain Text
Title : Форсированные
Language : Russian

Text #2
ID : 6
Format : UTF-8
Codec ID : S_TEXT/UTF8
Codec ID/Info : UTF-8 Plain Text
Title : Полные
Language : Russian

Text #3
ID : 7
Format : UTF-8
Codec ID : S_TEXT/UTF8
Codec ID/Info : UTF-8 Plain Text
Title : Full

Text #4
ID : 8
Format : UTF-8
Codec ID : S_TEXT/UTF8
Codec ID/Info : UTF-8 Plain Text
Title : SDH

Menu
00:00:00.000 : :1
00:07:05.341 : :2
00:14:28.200 : :3
00:20:13.836 : :4
00:29:27.097 : :5
00:39:02.590 : :6
00:50:56.802 : :7
00:59:52.755 : :8
01:08:53.127 : :9
01:16:19.949 : :10
01:25:27.704 : :11
01:35:23.259 : :12
01:41:30.333 : :13
01:49:18.342 : :14
01:57:00.637 : :15
02:04:44.350 : :16
info [Профиль]  [ЛС] 

post 07-Авг-2014 23:36 (спустя 36 секунд) [-]0[+]

Топик был перенесен из форума Оформление раздач (Кинематограф) в форум 3D Новинки

koss555
 

post 08-Ноя-2014 11:30 (спустя 3 месяца) [-]0[+]

Топик был перенесен из форума 3D Новинки в форум Новинки (3D)

L
 

post 18-Ноя-2014 17:02 (спустя 3 месяца 10 дней) [-]0[+]

Топик был перенесен из форума Новинки (3D) в форум 3D

BZzz
 
Показать сообщения:    
Ответить на тему

Текущее время: 06-Дек 14:21

Часовой пояс: GMT + 4



Вы не можете начинать темы
Вы не можете отвечать на сообщения
Вы не можете редактировать свои сообщения
Вы не можете удалять свои сообщения
Вы не можете голосовать в опросах
Вы не можете прикреплять файлы к сообщениям
Вы не можете скачивать файлы