Ошибка

До окончания фрилича осталось:


Оз: Возвращение в Изумрудный Город / Legends of Oz: Dorothy's Return (Уилл Финн, Дэн Ст. Пьер) [2013, мультфильм, мюзикл, семейный, HDRip]

Ответить на тему
 
Автор Сообщение

BZzz

Пол: Пол:Муж

Стаж: 5 лет 1 месяц

Сообщений: 3647

Россия
Рейтинг

post 06-Авг-2014 13:39 1[+]

[Цитировать] 

Оз: Возвращение в Изумрудный Город / Legends of Oz: Dorothy's Return
«There's trouble in OZ...»




Год выпуска: 2013
Страна: США , Индия
Жанр: мультфильм, мюзикл, семейный
Продолжительность: 01:32:02
Перевод: Профессиональный (дублированный)[лицензия]

Режиссер: Уилл Финн, Дэн Ст. Пьер

В ролях: Лиа Мишель (Lea Michele), Патрик Стюарт (Patrick Stewart), Джеймс Белуши (James Belushi), Дэн Эйкройд (Dan Aykroyd), Келси Грэммер (Kelsey Grammer), Меган Хилти (Megan Hilty), Хью Дэнси (Hugh Dancy), Оливер Платт (Oliver Platt)

Описание: Дороти снова магическим образом переносится в страну Оз, чтобы спасти от беды ее жителей. Но оказывается, что старые друзья Дороти — Страшила, Железный Дровосек и Храбрый Лев — исчезли. Путешествуя по стране в поисках своих друзей, Дороти встречает новых попутчиков — Капитана Зефира, Фарфоровую Принцессу и филина Савву. Дороти должна помочь таким разным героям объединиться, чтобы одолеть нового злодея — шута Джестера, который хочет захватить страну Оз при помощи черной магии.

Бюджет: $70 000 000
Сборы в США: $8 462 027
Сборы в мире: + $2 938 000 = $11 400 027
Сборы в России: $4 081 731
Рейтинг MPAA:



Качество: HDRip
Формат: AVI
Видео кодек: XviD
Аудио кодек: AC3
Видео: 720x400 (16:9), 23.976 fps, XviD, 1 815 Kbps
Аудио #1: AC3, 448 Kbps, 48.0 KHz, 6 ch
...
> В основе сюжета мультфильма — одноименная книга Роджера С. Баума, правнука Фрэнка Баума, создателя оригинальной истории про волшебника страны Оз.

" ...
> Меган Хилти ранее играла Глинду в мюзикле Wicked (Злой), который был основан на историях о стране Оз.

" ...
> Вильгельмов крик можно услышать в фильме, когда низкорослый человечек сбивает китайского солдата.
Формат : AVI
Формат/Информация : Audio Video Interleave
Размер файла : 1,46 Гбайт
Продолжительность : 1 ч. 32 м.
Общий поток : 2272 Кбит/сек
Программа кодирования : VirtualDubMod 1.5.10.3 | www.virtualdub-fr.org || (build 2550/release)
Библиотека кодирования : VirtualDubMod build 2550/release

Видео
Идентификатор : 0
Формат : MPEG-4 Visual
Профиль формата : Advanced Simple@L5
Параметр BVOP формата : 2
Параметр QPel формата : Нет
Параметр GMC формата : Без точки перехода
Параметр матрицы формата : Default (MPEG)
Идентификатор кодека : XVID
Идентификатор кодека/Подсказка : XviD
Продолжительность : 1 ч. 32 м.
Битрейт : 1815 Кбит/сек
Ширина : 720 пикселей
Высота : 400 пикселей
Соотношение сторон : 16:9
Частота кадров : 23,976 кадра/сек
Цветовое пространство : YUV
Субдискретизация насыщенности : 4:2:0
Битовая глубина : 8 бит
Тип развёртки : Прогрессивная
Метод сжатия : С потерями
Бит/(Пиксели*Кадры) : 0.263
Размер потока : 1,17 Гбайт (80%)
Библиотека кодирования : XviD 1.2.1 (UTC 2008-12-04)

Аудио
Идентификатор : 1
Формат : AC-3
Формат/Информация : Audio Coding 3
Расширение режима : CM (complete main)
Параметр Endianness формата : Big
Идентификатор кодека : 2000
Продолжительность : 1 ч. 32 м.
Вид битрейта : Постоянный
Битрейт : 448 Кбит/сек
Каналы : 6 каналов
Расположение каналов : Front: L C R, Side: L R, LFE
Частота : 48,0 КГц
Битовая глубина : 16 бит
Метод сжатия : С потерями
Размер потока : 295 Мбайт (20%)
Выравнивание : Разделение по промежуткам
Продолжительность промежутка : 42 мс. (1,00 видеокадр)
Время предзагрузки промежутка : 500 мс.
info [Профиль]  [ЛС] 

BZzz

Пол: Пол:Муж

Стаж: 5 лет 1 месяц

Сообщений: 3647

Россия
Рейтинг

post 17-Авг-2014 22:45 (спустя 11 дней) [-]0[+]

[Цитировать] 

 !  BZzz:
...лицензия
info [Профиль]  [ЛС] 

post 14-Сен-2014 10:48 (спустя 27 дней) [-]0[+]

Топик был перенесен из форума Новинки 2013-2014 (Rips) в форум Зарубежные полнометражные мультфильмы

L
 
Показать сообщения:    
Ответить на тему

Текущее время: 10-Дек 18:47

Часовой пояс: GMT + 4



Вы не можете начинать темы
Вы не можете отвечать на сообщения
Вы не можете редактировать свои сообщения
Вы не можете удалять свои сообщения
Вы не можете голосовать в опросах
Вы не можете прикреплять файлы к сообщениям
Вы не можете скачивать файлы