Ошибка

Ной / Noah (Даррен Аронофски) [2014 г., драма, приключения, фэнтези, BDRemux 1080p]

Ответить на тему
 
Автор Сообщение

Basketballman

Пол: Пол:Муж

Стаж: 7 лет 1 месяц

Сообщений: 280

Россия
Рейтинг

post 29-Июл-2014 16:33 4[+]

[Цитировать] 

Ной / Noah

Год выпуска: 2014
Страна: США
Жанр: драма, приключения, фэнтези
Продолжительность: 02:17:53
Перевод: профессиональный (полное дублирование) [лицензия]
Субтитры: русские, украинские, английские
Режиссер:
  • Даррен Аронофски
В ролях:
  • Расселл Кроу, Дженнифер Коннелли, Рэй Уинстон, Энтони Хопкинс, Эмма Уотсон, Логан Лерман, Дуглас Бут, Ник Нолти, Марк Марголис, Кевин Дюран

Описание: История отца, воина и спасителя Человечества и всего живого на Земле.


Качество: BDRemux 1080p
Формат: MKV
Видео кодек: MPEG-4
Аудио кодек: AC3, DTS-HD
Видео: 1920x1080, 23.976 fps, 24.5 Mбит/с
Аудио 1: Russian: AC3, 6 ch, 640 Kbps
Аудио 2: Ukrainian: AC3, 2 ch, 192 Kbps (iTunes)
Аудио 3: English: DTS-HD MA, 8 ch, 5149 Kbps
Субтитры: SRT

Sample
General
Unique ID : 225508076440854793230534347524121418277 (0xA9A746950D7141C0AF23F16DD155DA25)
Complete name : D:\Кино\Noah BDRemux.mkv
Format : Matroska
Format version : Version 2
File size : 29.1 GiB
Duration : 2h 17mn
Overall bit rate mode : Variable
Overall bit rate : 30.2 Mbps
Movie name : Ной.2014.Сборка: ollan
Encoded date : UTC 2014-07-28 21:05:02
Writing application : mkvmerge v5.6.0 ('Kenya Kane') built on May 27 2012 16:44:04
Writing library : libebml v1.2.3 + libmatroska v1.3.0

Video
ID : 1
Format : AVC
Format/Info : Advanced Video Codec
Format profile : High@L4.1
Format settings, CABAC : Yes
Format settings, ReFrames : 4 frames
Codec ID : V_MPEG4/ISO/AVC
Duration : 2h 17mn
Bit rate mode : Variable
Maximum bit rate : 33.0 Mbps
Width : 1 920 pixels
Height : 1 080 pixels
Display aspect ratio : 16:9
Frame rate mode : Constant
Frame rate : 23.976 fps
Color space : YUV
Chroma subsampling : 4:2:0
Bit depth : 8 bits
Scan type : Progressive
Language : English
Default : Yes
Forced : No

Audio #1
ID : 2
Format : AC-3
Format/Info : Audio Coding 3
Mode extension : CM (complete main)
Format settings, Endianness : Big
Codec ID : A_AC3
Duration : 2h 17mn
Bit rate mode : Constant
Bit rate : 640 Kbps
Channel count : 6 channels
Channel positions : Front: L C R, Side: L R, LFE
Sampling rate : 48.0 KHz
Bit depth : 16 bits
Compression mode : Lossy
Stream size : 631 MiB (2%)
Title : Дублированный (Лицензия СЕЕ)
Language : Russian
Default : Yes
Forced : No

Audio #2
ID : 3
Format : AC-3
Format/Info : Audio Coding 3
Mode extension : CM (complete main)
Format settings, Endianness : Big
Codec ID : A_AC3
Duration : 2h 17mn
Bit rate mode : Constant
Bit rate : 192 Kbps
Channel count : 2 channels
Channel positions : Front: L R
Sampling rate : 48.0 KHz
Bit depth : 16 bits
Compression mode : Lossy
Stream size : 189 MiB (1%)
Title : Дублированный
Language : Ukrainian
Default : No
Forced : No

Audio #3
ID : 4
Format : DTS
Format/Info : Digital Theater Systems
Format profile : MA / Core
Mode : 16
Format settings, Endianness : Big
Codec ID : A_DTS
Duration : 2h 17mn
Bit rate mode : Variable
Bit rate : Unknown / 1 509 Kbps
Channel count : 8 channels / 6 channels
Channel positions : Front: L C R, Side: L R, Back: L R, LFE / Front: L C R, Side: L R, LFE
Sampling rate : 48.0 KHz
Bit depth : 24 bits
Compression mode : Lossless / Lossy
Language : English
Default : No
Forced : No

Text #1
ID : 5
Format : UTF-8
Codec ID : S_TEXT/UTF8
Codec ID/Info : UTF-8 Plain Text
Title : Forced
Language : Russian
Default : Yes
Forced : No

Text #2
ID : 6
Format : UTF-8
Codec ID : S_TEXT/UTF8
Codec ID/Info : UTF-8 Plain Text
Title : Full
Language : Russian
Default : No
Forced : No

Text #3
ID : 7
Format : UTF-8
Codec ID : S_TEXT/UTF8
Codec ID/Info : UTF-8 Plain Text
Title : Full
Language : Ukrainian
Default : No
Forced : No

Text #4
ID : 8
Format : UTF-8
Codec ID : S_TEXT/UTF8
Codec ID/Info : UTF-8 Plain Text
Title : Full
Language : English
Default : No
Forced : No

Menu
00:00:00.000 : en:Chapter 01
00:04:48.954 : en:Chapter 02
00:08:37.265 : en:Chapter 03
00:12:23.033 : en:Chapter 04
00:18:43.079 : en:Chapter 05
00:23:25.487 : en:Chapter 06
00:32:06.423 : en:Chapter 07
00:37:27.202 : en:Chapter 08
00:42:50.733 : en:Chapter 09
00:54:35.645 : en:Chapter 10
01:01:14.961 : en:Chapter 11
01:03:28.595 : en:Chapter 12
01:09:33.792 : en:Chapter 13
01:19:18.336 : en:Chapter 14
01:21:56.536 : en:Chapter 15
01:29:12.345 : en:Chapter 16
01:34:02.052 : en:Chapter 17
01:40:27.354 : en:Chapter 18
01:49:23.097 : en:Chapter 19
01:55:57.824 : en:Chapter 20
02:00:37.229 : en:Chapter 21
02:11:32.676 : en:Chapter 22
02:17:52.888 : en:Chapter 23
info [Профиль]  [ЛС] 

Alhemist01

Стаж: 2 года 6 месяцев

Сообщений: 13

Рейтинг

post 23-Авг-2014 22:35 (спустя 25 дней) [-]0[+]

[Цитировать] 

Никого не смущает размер раздачи?
info [Профиль]  [ЛС] 

Balomut

Пол: Пол:Муж

Стаж: 4 года 11 месяцев

Сообщений: 36

Россия
Рейтинг

post 31-Авг-2014 22:26 (спустя 7 дней) [-]1[+]

[Цитировать] 

Alhemist01 писал(а):

Никого не смущает размер раздачи?
А что должно смущать то?
Вот это что ли:
===
Duration : 2h 17mn
Maximum bit rate : 33.0 Mbps
Width : 1 920 pixels
Height : 1 080 pixels
Display aspect ratio : 16:9
Frame rate : 23.976 fp
===
Качай CAMRip, там на много поменьше размеры.

добавлено спустя 2 минуты 14 секунд:

За фильм спасибо.

_________________
info [Профиль]  [ЛС] 

post 14-Сен-2014 10:36 (спустя 13 дней) [-]0[+]

Топик был перенесен из форума Новинки 2013-2014 (DVD, HD DVD, Blu-ray, HD Rips, Web-DL) в форум Зарубежное кино | HD DVD и Blu-ray

L
 
Показать сообщения:    
Ответить на тему

Текущее время: 07-Дек 12:42

Часовой пояс: GMT + 4



Вы не можете начинать темы
Вы не можете отвечать на сообщения
Вы не можете редактировать свои сообщения
Вы не можете удалять свои сообщения
Вы не можете голосовать в опросах
Вы не можете прикреплять файлы к сообщениям
Вы не можете скачивать файлы