Ошибка

Рио 2 / Rio 2 (Карлос Салдана) [2014, мультфильм, комедия, приключения, семейный, HDRip]

Ответить на тему
 
Автор Сообщение

BZzz

Пол: Пол:Муж

Стаж: 5 лет 1 месяц

Сообщений: 3647

Россия
Рейтинг

post 01-Июл-2014 02:06 0[+]

[Цитировать] 

Рио 2 / Rio 2
«It's on in the Amazon»




Год выпуска: 2014
Страна: США
Жанр: мультфильм, комедия, приключения, семейный
Продолжительность: 01:41:11
Перевод: Профессиональный (дублированный)[цифровая лицензия iTunes]

Режиссер: Карлос Салдана

В ролях: Энн Хэтэуэй (Anne Hathaway), Джесси Айзенберг (Jesse Eisenberg), Джейк Т. Остин (Jake T. Austin), Карлиньюс Браун (Carlinhos Brown), Кристин Ченоуэт (Kristin Chenoweth), Джемейн Клемент (Jemaine Clement), Джим Конрой (Jim Conroy), Рэйчел Кроу (Rachel Crow)

Описание: Голубчик, Жемчужинка и их трое детей живут счастливой жизнью в волшебном городе Рио-де-Жанейро. Когда Жемчужинка решает, что их детям нужно научиться жить как настоящим птицам, она настаивает на авантюрной поездке в дебри реки Амазонки. Там, пытаясь вписаться в новое окружение, Голубчик начинает беспокоиться, что может потерять Жемчужинку и детей, идущих на зов дикой природы.

Бюджет: $103 000 000
Сборы в США: $128 146 333
Сборы в мире: + $329 200 000 = $457 346 333
Сборы в России: $26 655 475
Рейтинг MPAA:



Качество: HDRip
Формат: AVI
Видео кодек: XviD
Аудио кодек: AC3
Видео: 720x304 (2.35:1), 23.976 fps, XviD, 2 055 Kbps
Аудио #1: Rus AC3, 384 Kbps, 48.0 KHz, 6 ch
Аудио #2: Eng AC3, 448 Kbps, 48.0 KHz, 6 ch
...
> На одном из постеров к фильму около 150 попугаев вида голубой ара формируют в небе большую цифру 2. Это количество отражает реальную картину популяции вида на 2014 год (большинство из этих птиц находится в неволе).

...
> Этот фильм стал последним для сценариста Дона Раймера.
General
Complete name : Rio2.2014.D.HDRip.avi
Format : AVI
Format/Info : Audio Video Interleave
Format profile : OpenDML
File size : 2.05 GiB
Duration : 1h 41mn
Overall bit rate : 2 905 Kbps
Writing application : VirtualDubMod 1.5.10.2 (build 2540/release)
Writing library : VirtualDubMod build 2540/release

Video
ID : 0
Format : MPEG-4 Visual
Format profile : Advanced Simple@L5
Format settings, BVOP : Yes
Format settings, QPel : No
Format settings, GMC : No warppoints
Format settings, Matrix : Custom
Codec ID : XVID
Codec ID/Hint : XviD
Duration : 1h 41mn
Bit rate : 2 055 Kbps
Width : 720 pixels
Height : 304 pixels
Display aspect ratio : 2.35:1
Frame rate : 23.976 fps
Color space : YUV
Chroma subsampling : 4:2:0
Bit depth : 8 bits
Scan type : Progressive
Bits/(Pixel*Frame) : 0.392
Stream size : 1.45 GiB (71%)
Writing library : XviD 1.2.1 (UTC 2008-12-04)

Audio #1
ID : 1
Format : AC-3
Format/Info : Audio Coding 3
Mode extension : CM (complete main)
Codec ID : 2000
Duration : 1h 41mn
Bit rate mode : Constant
Bit rate : 384 Kbps
Channel(s) : 6 channels
Channel positions : Front: L C R, Side: L R, LFE
Sampling rate : 48.0 KHz
Bit depth : 16 bits
Stream size : 278 MiB (13%)
Alignment : Split accross interleaves
Interleave, duration : 42 ms (1.00 video frame)
Interleave, preload duration : 500 ms

Audio #2
ID : 2
Format : AC-3
Format/Info : Audio Coding 3
Mode extension : CM (complete main)
Codec ID : 2000
Duration : 1h 41mn
Bit rate mode : Constant
Bit rate : 448 Kbps
Channel(s) : 6 channels
Channel positions : Front: L C R, Side: L R, LFE
Sampling rate : 48.0 KHz
Bit depth : 16 bits
Stream size : 324 MiB (15%)
Alignment : Split accross interleaves
Interleave, duration : 42 ms (1.00 video frame)
Interleave, preload duration : 500 ms
info [Профиль]  [ЛС] 

post 14-Сен-2014 10:48 (спустя 2 месяца 13 дней) [-]0[+]

Топик был перенесен из форума Новинки 2013-2014 (Rips) в форум Зарубежные полнометражные мультфильмы

L
 
Показать сообщения:    
Ответить на тему

Текущее время: 04-Дек 16:20

Часовой пояс: GMT + 4



Вы не можете начинать темы
Вы не можете отвечать на сообщения
Вы не можете редактировать свои сообщения
Вы не можете удалять свои сообщения
Вы не можете голосовать в опросах
Вы не можете прикреплять файлы к сообщениям
Вы не можете скачивать файлы