Ошибка

До окончания фрилича осталось:


Рио 2 / Rio 2 (Карлос Салдана) [2014, мультфильм, комедия, приключения, семейный, BDRip 1080p, 3D] [Вертикальная анаморфная стереопара]

Ответить на тему
 
Автор Сообщение

BZzz

Пол: Пол:Муж

Стаж: 5 лет 1 месяц

Сообщений: 3647

Россия
Рейтинг

post 01-Июл-2014 01:37 0[+]

[Цитировать] 

Рио 2 / Rio 2
«It's on in the Amazon»




Год выпуска: 2014
Страна: США
Жанр: мультфильм, комедия, приключения, семейный
Продолжительность: 01:41:11
Перевод: Профессиональный (дублированный)[цифровая лицензия iTunes]

Режиссер: Карлос Салдана

В ролях: Энн Хэтэуэй (Anne Hathaway), Джесси Айзенберг (Jesse Eisenberg), Джейк Т. Остин (Jake T. Austin), Карлиньюс Браун (Carlinhos Brown), Кристин Ченоуэт (Kristin Chenoweth), Джемейн Клемент (Jemaine Clement), Джим Конрой (Jim Conroy), Рэйчел Кроу (Rachel Crow)

Описание: Голубчик, Жемчужинка и их трое детей живут счастливой жизнью в волшебном городе Рио-де-Жанейро. Когда Жемчужинка решает, что их детям нужно научиться жить как настоящим птицам, она настаивает на авантюрной поездке в дебри реки Амазонки. Там, пытаясь вписаться в новое окружение, Голубчик начинает беспокоиться, что может потерять Жемчужинку и детей, идущих на зов дикой природы.

Бюджет: $103 000 000
Сборы в США: $128 146 333
Сборы в мире: + $329 200 000 = $457 346 333
Сборы в России: $26 655 475
Рейтинг MPAA:



Качество: BDRip 1080p
Формат: MKV
Видео кодек: AVC
Аудио кодек: AC3
Видео: 1920x1080 (16:9), 23.976 fps, High@L4.1, 8 871 Kbps
Аудио #1: Rus AC3, 384 Kbps, 48.0 KHz, 6 ch
Аудио #2: Eng AC3, 640 Kbps, 48.0 KHz, 6 ch
...
> На одном из постеров к фильму около 150 попугаев вида голубой ара формируют в небе большую цифру 2. Это количество отражает реальную картину популяции вида на 2014 год (большинство из этих птиц находится в неволе).

...
> Этот фильм стал последним для сценариста Дона Раймера.
General
Complete name : Rio.2.3D.mkv
Format : Matroska
File size : 7.14 GiB
Duration : 1h 41mn
Overall bit rate : 10.1 Mbps
Movie name : Рио 2 / Rio 2 (2014) 3D
Encoded date : UTC 2010-02-22 21:41:31
Writing application : mkvmerge v5.8.0 ('No Sleep / Pillow') built on Nov 13 2012 19:43:22
Writing library : libebml v1.3.0 + libmatroska v1.4.0

Video
ID : 1
Format : AVC
Format/Info : Advanced Video Codec
Format profile : High@L4.1
Format settings, CABAC : Yes
Format settings, ReFrames : 4 frames
Muxing mode : Container profile=Unknown@4.1
Codec ID : V_MPEG4/ISO/AVC
Duration : 1h 41mn
Bit rate : 8 871 Kbps
Width : 1 920 pixels
Height : 1 080 pixels
Display aspect ratio : 16:9
Frame rate : 23.976 fps
Color space : YUV
Chroma subsampling : 4:2:0
Bit depth : 8 bits
Scan type : Progressive
Bits/(Pixel*Frame) : 0.178
Stream size : 6.27 GiB (88%)
Writing library : x264 core 138 r2358 9e941d1
Encoding settings : cabac=1 / ref=4 / deblock=1:-3:-3 / analyse=0x3:0x113 / me=umh / subme=10 / psy=1 / psy_rd=1.00:0.15 / mixed_ref=1 / me_range=32 / chroma_me=1 / trellis=2 / 8x8dct=1 / cqm=0 / deadzone=21,11 / fast_pskip=1 / chroma_qp_offset=-3 / threads=12 / lookahead_threads=2 / sliced_threads=0 / nr=0 / decimate=1 / interlaced=0 / bluray_compat=0 / constrained_intra=0 / bframes=9 / b_pyramid=2 / b_adapt=2 / b_bias=0 / direct=3 / weightb=1 / open_gop=0 / weightp=2 / keyint=250 / keyint_min=23 / scenecut=40 / intra_refresh=0 / rc_lookahead=60 / rc=crf / mbtree=1 / crf=17.0 / qcomp=0.70 / qpmin=0 / qpmax=69 / qpstep=4 / vbv_maxrate=40000 / vbv_bufsize=30000 / crf_max=0.0 / nal_hrd=none / frame-packing=4 / ip_ratio=1.40 / aq=1:0.70

Audio #1
ID : 2
Format : AC-3
Format/Info : Audio Coding 3
Mode extension : CM (complete main)
Codec ID : A_AC3
Duration : 1h 41mn
Bit rate mode : Constant
Bit rate : 384 Kbps
Channel(s) : 6 channels
Channel positions : Front: L C R, Side: L R, LFE
Sampling rate : 48.0 KHz
Bit depth : 16 bits
Stream size : 278 MiB (4%)
Title : iTunes
Language : Russian

Audio #2
ID : 3
Format : AC-3
Format/Info : Audio Coding 3
Mode extension : CM (complete main)
Codec ID : A_AC3
Duration : 1h 41mn
Bit rate mode : Constant
Bit rate : 640 Kbps
Channel(s) : 6 channels
Channel positions : Front: L C R, Side: L R, LFE
Sampling rate : 48.0 KHz
Bit depth : 16 bits
Stream size : 463 MiB (6%)
Title : Original - BD 3D

Menu
00:00:00.000 : :1
00:03:10.814 : :2
00:05:14.314 : :3
00:08:49.361 : :4
00:13:02.239 : :5
00:17:36.305 : :6
00:19:19.407 : :7
00:22:30.347 : :8
00:26:48.690 : :9
00:29:00.154 : :10
00:30:59.691 : :11
00:33:46.566 : :12
00:36:34.190 : :13
00:39:20.231 : :14
00:41:32.655 : :15
00:45:05.119 : :16
00:47:23.090 : :17
00:49:58.161 : :18
00:52:05.454 : :19
00:55:38.918 : :20
00:58:10.903 : :21
01:02:11.393 : :22
01:04:38.081 : :23
01:07:03.936 : :24
01:09:18.194 : :25
01:10:21.341 : :26
01:15:17.762 : :27
01:17:00.157 : :28
01:21:41.854 : :29
01:25:24.618 : :30
01:29:42.710 : :31
01:32:27.958 : :32
info [Профиль]  [ЛС] 

post 08-Ноя-2014 11:30 (спустя 4 месяца 7 дней) [-]0[+]

Топик был перенесен из форума 3D Новинки в форум Новинки (3D)

L
 

post 18-Ноя-2014 17:02 (спустя 4 месяца 17 дней) [-]0[+]

Топик был перенесен из форума Новинки (3D) в форум 3D

BZzz
 
Показать сообщения:    
Ответить на тему

Текущее время: 10-Дек 05:18

Часовой пояс: GMT + 4



Вы не можете начинать темы
Вы не можете отвечать на сообщения
Вы не можете редактировать свои сообщения
Вы не можете удалять свои сообщения
Вы не можете голосовать в опросах
Вы не можете прикреплять файлы к сообщениям
Вы не можете скачивать файлы