Ошибка

Романс Валькирий / Walkure Romanze [TV] [1-12 из 12] [2013][романтика, этти][BDRip][720p][Любительский, JAP+SUB]

Ответить на тему
 
Автор Сообщение

L

Пол: Пол:Муж

Стаж: 6 лет 7 месяцев

Сообщений: 10827

Украина
Рейтинг

post 25-Июн-2014 09:08 0[+]

[Цитировать] 


Год выпуска: 2013
Страна: Япония
Жанр: романтика, этти
Продолжительность: ТВ-сериал, 12 эп. по 24 мин.
Выпуск: c 07.10.2013 по 23.12.2013
Озвучка:
  • двухголосая (муж./жен.) от Eladiel & Zendos (Anilibria)
  • двухголосая (муж./жен.) от ShadMG & NesTea (SHIZA)
  • двухголосая (муж./жен.) от Cuba77 & Nika_Lenina (AniDub)
Субтитры:
  • русские
      Zool (полные/вспомогательные)

Режиссер: Ямамото Юсукэ
Студия: 8bit
Описание:
В этом мире рыцарские схватки превратились в популярный спорт, и попасть в рыцарскую академию, что раскинулась в стилизованном средневековом городе, стремятся талантливые ребята со всего света. Исход поединка решает не грубая сила, а точность ударов, потому ристалище доступно для всех. Такахиро Мидзуно считался одним из лучших, но в старшей школе из-за травмы был вынужден перейти в оруженосцы, то есть в помощники и тренеры, которые могут полностью раскрыть потенциал бойца и его коня. Хорошие помощники ценятся на вес золота, потому недостатка в приглашениях к сотрудничеству перед летним турниром у парня не было. Стоит ли удивляться, что все предложения поступили от бойцов-девушек?!

Самое весомое из них, разумеется, сделала Селия Кумани Энтре, президент совета и первый рыцарь академии. Ее извечная соперница Ноэль Марс Аскот не захотела уступать и тоже обратилась с аналогичной просьбой. Не отстала от старших подруг перспективный новичок Лиза Эостре – в конце концов, ей «принимать школу» после ухода нынешних суперзвезд. Ну и, конечно, есть подруга детства Мио Кисаки, которая, правда, в седле сидеть не умеет, но… что не сделаешь ради любимого! В общем, достойные леди и джентльмены, турнир уже начался – делайте ставки на победительницу!
© Hollow, World Art
Информационные ссылки: AniDB || World Art || MAL
Качество: BDRip (DS с 1080)
Энкод: RG Pantheon
Тип видео: без хардсаба, без линковки
Формат: mkv
Видео: x264 (8bit), 1280x720, ~2400 Kbps, 23.976 fps
Аудио JAP: AC3, 48000Hz, ~192 Kbps, 2ch
Аудио RUS 1: AC3, 48000Hz, ~192 Kbps, 2ch
Аудио RUS 2: AC3, 48000Hz, ~192 Kbps, 2ch
Аудио RUS 3: AC3, 48000Hz, ~192 Kbps, 2ch
01. The Flower Garden
02. Mio`s Trials
03. The Morning of the Duel
04. What It Takes to Be a Knight
05. Girls Without Their Armor
06. Time Off in Helen`s Hill
07. Under the Windmill
08. I Wish Upon a Shooting Star
09. The Maiden`s Festival
10. Clash
11. Where Victory Lies
12. When Summer Ends
Общее
Уникальный идентификатор : 204025741331088061907100168751364187358 (0x997DEDAFEAD2FFBF8ADF21CF861424DE)
Полное имя : S:\Anime\HDHWP\Walkure Romanze [BD-HDHWP]\[DS] Walkure Romanze 05 BD x264-8.mkv
Формат : Matroska
Версия формата : Version 2
Размер файла : 535 Мбайт
Продолжительность : 23 м.
Общий поток : 3160 Кбит/сек
Дата кодирования : UTC 2014-06-22 21:16:25
Программа кодирования : mkvmerge v2.9.8 ('C'est le bon') built on Aug 13 2009 12:49:06
Библиотека кодирования : libebml v0.7.7 + libmatroska v0.8.1

Видео
Идентификатор : 1
Формат : AVC
Формат/Информация : Advanced Video Codec
Профиль формата : High@L4.1
Параметр CABAC формата : Да
Параметр ReFrames формата : 8 кадров
Идентификатор кодека : V_MPEG4/ISO/AVC
Продолжительность : 23 м.
Битрейт : 2329 Кбит/сек
Ширина : 1280 пикселей
Высота : 720 пикселей
Соотношение сторон : 16:9
Режим частоты кадров : Постоянный
Частота кадров : 23,976 кадра/сек
Цветовое пространство : YUV
Субдискретизация насыщенности : 4:2:0
Битовая глубина : 8 бит
Тип развёртки : Прогрессивная
Бит/(Пиксели*Кадры) : 0.105
Размер потока : 395 Мбайт (74%)
Библиотека кодирования : x264 core 132 r2309 3b1f1f7
Настройки программы : cabac=1 / ref=8 / deblock=1:-2:-2 / analyse=0x3:0x133 / me=hex / subme=9 / psy=1 / psy_rd=0.80:0.00 / mixed_ref=1 / me_range=16 / chroma_me=1 / trellis=2 / 8x8dct=1 / cqm=0 / deadzone=21,11 / fast_pskip=1 / chroma_qp_offset=-2 / threads=6 / lookahead_threads=1 / sliced_threads=0 / nr=0 / decimate=0 / interlaced=0 / bluray_compat=0 / constrained_intra=0 / bframes=8 / b_pyramid=2 / b_adapt=2 / b_bias=0 / direct=1 / weightb=1 / open_gop=0 / weightp=2 / keyint=250 / keyint_min=23 / scenecut=40 / intra_refresh=0 / rc=crf / mbtree=0 / crf=17.0 / qcomp=0.70 / qpmin=9 / qpmax=60 / qpstep=4 / ip_ratio=1.40 / pb_ratio=1.30 / aq=1:0.70
Default : Нет
Forced : Нет

Аудио #1
Идентификатор : 2
Формат : AC-3
Формат/Информация : Audio Coding 3
Расширение режима : CM (complete main)
Параметр Endianness формата : Big
Идентификатор кодека : A_AC3
Продолжительность : 23 м.
Вид битрейта : Постоянный
Битрейт : 192 Кбит/сек
Каналы : 2 канала
Расположение каналов : Front: L R
Частота : 48,0 КГц
Битовая глубина : 16 бит
Метод сжатия : С потерями
Размер потока : 32,5 Мбайт (6%)
Заголовок : JPN
Язык : Japanese
Default : Нет
Forced : Нет

Аудио #2
Идентификатор : 3
Формат : AC-3
Формат/Информация : Audio Coding 3
Расширение режима : CM (complete main)
Параметр Endianness формата : Big
Идентификатор кодека : A_AC3
Продолжительность : 23 м.
Вид битрейта : Постоянный
Битрейт : 192 Кбит/сек
Каналы : 2 канала
Расположение каналов : Front: L R
Частота : 48,0 КГц
Битовая глубина : 16 бит
Метод сжатия : С потерями
Размер потока : 32,5 Мбайт (6%)
Заголовок : [Cuba77 & Nika_Lenina]
Язык : Russian
Default : Да
Forced : Нет

Аудио #3
Идентификатор : 4
Формат : AC-3
Формат/Информация : Audio Coding 3
Расширение режима : CM (complete main)
Параметр Endianness формата : Big
Идентификатор кодека : A_AC3
Продолжительность : 23 м.
Вид битрейта : Постоянный
Битрейт : 192 Кбит/сек
Каналы : 2 канала
Расположение каналов : Front: L R
Частота : 48,0 КГц
Битовая глубина : 16 бит
Метод сжатия : С потерями
Размер потока : 32,5 Мбайт (6%)
Заголовок : [Eladiel & Zendos]
Язык : Russian
Default : Нет
Forced : Нет

Аудио #4
Идентификатор : 5
Формат : AC-3
Формат/Информация : Audio Coding 3
Расширение режима : CM (complete main)
Параметр Endianness формата : Big
Идентификатор кодека : A_AC3
Продолжительность : 23 м.
Вид битрейта : Постоянный
Битрейт : 192 Кбит/сек
Каналы : 2 канала
Расположение каналов : Front: L R
Частота : 48,0 КГц
Битовая глубина : 16 бит
Метод сжатия : С потерями
Размер потока : 32,5 Мбайт (6%)
Заголовок : [ShadMG & NesTea]
Язык : Russian
Default : Нет
Forced : Нет
info [Профиль]  [ЛС] 
Показать сообщения:    
Ответить на тему

Текущее время: 08-Дек 11:54

Часовой пояс: GMT + 4



Вы не можете начинать темы
Вы не можете отвечать на сообщения
Вы не можете редактировать свои сообщения
Вы не можете удалять свои сообщения
Вы не можете голосовать в опросах
Вы не можете прикреплять файлы к сообщениям
Вы не можете скачивать файлы