Ошибка

Кот Гром и заколдованный дом / The House of Magic (Джереми Дегрусон, Бен Стассен) [2013, мультфильм, семейный, BDRip 1080p]

Ответить на тему
 
Автор Сообщение

koss555

Пол: Пол:Муж

Стаж: 4 года 11 месяцев

Сообщений: 1549

Россия
Рейтинг

post 14-Июн-2014 01:35 2[+]

[Цитировать] 

Кот Гром и заколдованный дом / The House of Magic

Год выпуска: 2013
Страна: США , Бельгия
Жанр: мультфильм, семейный
Продолжительность: 01:25:28
Перевод: Дублированное [Лицензия]
Субтитры:English

Режиссер: Джереми Дегрусон, Бен Стассен
Сценарий: Бен Стассен, Джеймс Флинн, Доминик Пари
Продюсер: Надя Хамлиши, Адриан Политовски, Бен Стассен
Композитор: Рамин Джавади
Художник: Джереми Дегрусон

В ролях: Синда Адамс / Cinda Adams (Nurse Baxter, озвучка), Эдвард Эснер / Edward Asner (Sr. Jeffrey McDonough, озвучка), Эмили Блант / Emily Blunt (Kayla, озвучка), Грант Джордж / Grant George (Daniel, озвучка), Юджин Леви / Eugene Levy (Larry, озвучка), Дэнни Манн / Danny Mann (Dimitri, озвучка), Юэн МакГрегор / Ewan McGregor (Lenny, озвучка), Рон Перлман / Ron Perlman (Randy, озвучка)


Описание: Любопытный рыжий кот попадает в дом старого фокусника и узнает секрет его трюков. Так начинается его знакомство с учеными зверями и живыми игрушками, а также невероятные приключения полные юмора и опасностей.

Бюджет: $34 000 000
Сборы в России: $5 089 281
Зрители: Франция 1.03 млн , Россия 951.4 тыс. , Корея Южная 880.4 тыс.
Премьера (мир): 24 декабря 2013
Премьера (РФ): 8 мая 2014, «Вольга» 3D
Релиз на DVD: 23 июня 2014 «Вольга»



Качество: BDRip 1080p
Формат: MKV
Видео кодек: AVC
Аудио кодеk: AC3
Видео: 1920x1080 (16:9), 24.000 fps, AVC, 8 457 Kbps
Аудио: Аудио #1Russian: AC3, 384 Kbps, 48.0 KHz, 6 ch
Аудио #2English: DTS, 1 510 Kbps, 48.0 KHz, 6 ch
General
Unique ID : 235638177920668108409878847033074444474 (0xB14643256D1191278D5B7BBCD892E8BA)
Complete name :Кот Гром и заколдованный дом (2013) BDRip 1080p.mkv
Format : Matroska
Format version : Version 4 / Version 2
File size : 6.17 GiB
Duration : 1h 25mn
Overall bit rate : 10.3 Mbps
Movie name : UNIONGANG
Encoded date : UTC 2014-06-13 18:25:50
Writing application : mkvmerge v6.9.1 ('Blue Panther') 32bit built on Apr 18 2014 18:15:44
Writing library : libebml v1.3.0 + libmatroska v1.4.1

Video
ID : 1
Format : AVC
Format/Info : Advanced Video Codec
Format profile : High@L4.1
Format settings, CABAC : Yes
Format settings, ReFrames : 4 frames
Codec ID : V_MPEG4/ISO/AVC
Duration : 1h 25mn
Bit rate : 8 457 Kbps
Width : 1 920 pixels
Height : 1 080 pixels
Display aspect ratio : 16:9
Frame rate : 24.000 fps
Color space : YUV
Chroma subsampling : 4:2:0
Bit depth : 8 bits
Scan type : Progressive
Bits/(Pixel*Frame) : 0.170
Stream size : 4.92 GiB (80%)
Title : UNIONGANG
Writing library : x264 core 138 r2358 9e941d1
Encoding settings : cabac=1 / ref=4 / deblock=1:0:0 / analyse=0x3:0x133 / me=umh / subme=11 / psy=1 / psy_rd=1.00:0.15 / mixed_ref=1 / me_range=32 / chroma_me=1 / trellis=2 / 8x8dct=1 / cqm=0 / deadzone=21,11 / fast_pskip=0 / chroma_qp_offset=-3 / threads=12 / lookahead_threads=1 / sliced_threads=0 / nr=0 / decimate=1 / interlaced=0 / bluray_compat=0 / constrained_intra=0 / bframes=3 / b_pyramid=2 / b_adapt=2 / b_bias=0 / direct=3 / weightb=1 / open_gop=0 / weightp=2 / keyint=240 / keyint_min=24 / scenecut=40 / intra_refresh=0 / rc=2pass / mbtree=0 / bitrate=8457 / ratetol=2.0 / qcomp=0.60 / qpmin=10 / qpmax=51 / qpstep=4 / cplxblur=20.0 / qblur=0.5 / ip_ratio=1.40 / pb_ratio=1.00 / aq=1:1.00
Language : English

Audio #1
ID : 2
Format : AC-3
Format/Info : Audio Coding 3
Mode extension : CM (complete main)
Codec ID : A_AC3
Duration : 1h 25mn
Bit rate mode : Constant
Bit rate : 384 Kbps
Channel(s) : 6 channels
Channel positions : Front: L C R, Side: L R, LFE
Sampling rate : 48.0 KHz
Bit depth : 16 bits
Compression mode : Lossy
Stream size : 235 MiB (4%)
Title : DUB
Language : Russian

Audio #2
ID : 3
Format : DTS
Format/Info : Digital Theater Systems
Codec ID : A_DTS
Duration : 1h 25mn
Bit rate mode : Constant
Bit rate : 1 510 Kbps
Channel(s) : 6 channels
Channel positions : Front: L C R, Side: L R, LFE
Sampling rate : 48.0 KHz
Bit depth : 24 bits
Compression mode : Lossy
Delay relative to video : 1ms
Stream size : 923 MiB (15%)
Language : English

Text #1
ID : 4
Format : UTF-8
Codec ID : S_TEXT/UTF8
Codec ID/Info : UTF-8 Plain Text
Title : Italiano Forced
Language : Italian

Text #2
ID : 5
Format : UTF-8
Codec ID : S_TEXT/UTF8
Codec ID/Info : UTF-8 Plain Text
Title : Italiano
Language : Italian

Menu
00:00:00.000 : en:00:00:00.000
00:07:04.208 : en:00:07:04.208
00:10:47.125 : en:00:10:47.125
00:16:06.500 : en:00:16:06.500
00:18:50.333 : en:00:18:50.333
00:22:25.500 : en:00:22:25.500
00:25:08.917 : en:00:25:08.917
00:27:12.917 : en:00:27:12.917
00:30:23.125 : en:00:30:23.125
00:34:25.958 : en:00:34:25.958
00:37:56.458 : en:00:37:56.458
00:41:05.792 : en:00:41:05.792
00:45:04.708 : en:00:45:04.708
00:52:17.500 : en:00:52:17.500
00:56:08.875 : en:00:56:08.875
01:01:24.250 : en:01:01:24.250
01:07:07.542 : en:01:07:07.542
01:12:01.000 : en:01:12:01.000
01:16:35.208 : en:01:16:35.208
01:20:42.542 : en:01:20:42.542(15%)
info [Профиль]  [ЛС] 

post 14-Июн-2014 01:38 (спустя 3 минуты) [-]0[+]

Топик был перенесен из форума Оформление раздач (Кинематограф) в форум DVD, HD DVD, Blu-ray, HD Rips, Web-DL

koss555
 

genesis

Пол: Пол:Муж

Стаж: 7 лет 8 месяцев

Сообщений: 25

Россия
Рейтинг

post 14-Июн-2014 12:09 (спустя 10 часов) [-]4[+]

[Цитировать] 

Битый файл, после 33 секунды зависает, потом перескакивает на 1 час 11мин 30 сек
info [Профиль]  [ЛС] 

Mitrofanovev

Пол: Пол:Муж

Стаж: 3 года 10 месяцев

Сообщений: 2

Россия
Рейтинг

post 14-Июн-2014 16:02 (спустя 3 часа) [-]0[+]

[Цитировать] 

Нормальный файл, у меня ничего не зависает.
info [Профиль]  [ЛС] 

reg

Стаж: 3 года 8 месяцев

Сообщений: 43

Рейтинг

post 14-Июн-2014 16:27 (спустя 24 минуты) [-]3[+]

[Цитировать] 

У меня тоже файл виснет на 0:33.
info [Профиль]  [ЛС] 

sport74

Пол: Пол:Муж

Стаж: 6 лет 2 месяца

Сообщений: 8

Россия
Рейтинг

post 14-Июн-2014 21:31 (спустя 5 часов) [-]0[+]

[Цитировать] 

это не лицензия! озвучка : Профессиональный (полное дублирование)[НТВ+]

лицензия:23 июня 2014
info [Профиль]  [ЛС] 

VovaTarasiuk

Пол: Пол:Муж

Стаж: 6 лет 7 месяцев

Сообщений: 3

Украина
Рейтинг

post 14-Июн-2014 22:57 (спустя 1 час 26 минут) [-]2[+]

[Цитировать] 

виснет
info [Профиль]  [ЛС] 

zakeryrus

Пол: Пол:Муж

Стаж: 6 лет 1 месяц

Сообщений: 37

Россия
Рейтинг

post 15-Июн-2014 01:05 (спустя 2 часа 7 минут) [-]2[+]

[Цитировать] 

виснет

_________________
Если натянуть нижнюю губу на голову и резко глотнуть... то можно исчезнуть.
info [Профиль]  [ЛС] 

Biotris

Пол: Пол:Жен

Стаж: 3 года 6 месяцев

Сообщений: 105

Кокосовые острова
Рейтинг

post 15-Июн-2014 14:44 (спустя 13 часов) [-]0[+]

[Цитировать] 

У меня тоже висло на 33 секунде и потом играло на полтора часа. Перекачайте, мне помогло!

_________________
Windows 10 x64
Процессор: i7-4790K
Монитор: Sony KDL-50W828B
Плата: GIGABYTE G1.Sniper B5 rev 1.1
Видеокарта: Gigabyte GTX 770 4Gb | Driver: 372.54
Память: Kingston HyperX FURY Black DDR3 1600 16 GB
info [Профиль]  [ЛС] 

ouschen

Пол: Пол:Муж

Стаж: 4 года 11 месяцев

Сообщений: 4

Россия
Рейтинг

post 18-Июн-2014 14:37 (спустя 2 дня 23 часа) [-]0[+]

[Цитировать] 

другой файл скачался, ерунда какая то.
info [Профиль]  [ЛС] 

post 25-Июн-2014 10:37 (спустя 6 дней) [-]0[+]

Топик был перенесен из форума DVD, HD DVD, Blu-ray, HD Rips, Web-DL в форум Зарубежное кино | HD Rips

L
 

post 25-Июн-2014 10:45 (спустя 6 дней) [-]0[+]

Топик был перенесен из форума Зарубежное кино | HD Rips в форум Мультфильмы (HD Video)

L
 
Показать сообщения:    
Ответить на тему

Текущее время: 07-Дек 20:25

Часовой пояс: GMT + 4



Вы не можете начинать темы
Вы не можете отвечать на сообщения
Вы не можете редактировать свои сообщения
Вы не можете удалять свои сообщения
Вы не можете голосовать в опросах
Вы не можете прикреплять файлы к сообщениям
Вы не можете скачивать файлы