Ошибка

Легенда о Корре / The Legend of Korra / Сезоны: 1, 2 / Серии: 1-26 из 26 (Майкл Данте ДиМартино, Брайан Кониецко / Michael Dante DiMartino, Bryan Konietzko) [2012-2013, Приключения, боевик, фэнтези, DVB] Dub (Nickelodeon)

Ответить на тему
 
Автор Сообщение

DARKAN

Пол: Пол:Муж

Стаж: 3 года 4 месяца

Сообщений: 56

Россия
Рейтинг

post 03-Июн-2014 18:32 1[+]

[Цитировать] 

Легенда о Корре

Оригинальное название: The Legend of Korra
Года выпусков: 2012-2013
Страна: США
Жанр: Приключения, боевик, фэнтези
Серии: 1-26 из 26
Сезоны: 1, 2
Продолжительность: 00:22:38
Перевод: Профессиональный (полное дублирование)
Режиссёры:
  • Майкл Данте ДиМартино, Брайан Кониецко / Michael Dante DiMartino, Bryan Konietzko
Роли дублировали:
  • Владимир Антоник, Ольга Шорохова, Мария Овчинникова, Никита Прозоровский, Александр Гаврилин, Валерий Сторожик, Людмила Шувалова, Ольга Сирина.

Описание:
Действие сериала «Аватар: Легенда о Корре» разворачивается через 70 лет после окончания Столетней Войны. Новое государство Объединенная республика и его процветающая столица Республиканский город были основаны как место, где маги и не-маги могут жить в мире и согласии. Но даже в этом райском месте не обходится без проблем – и новый Аватар, энергичная девушка по имени Корра, скоро в этом убедится.
Качество: DVB
Формат: MPG
Видео: MPEG2, 720x576, 25.000 fps, 2.280 Kbps
Аудио: MP2, 48.0 KHz, 2 ch, 192 Kbps
Сезон 1:
01. Добро пожаловать в республиканский город
02. Лист на ветру
03. Откровение
04. Голос в ночи
05. Дух соревнования
06. Победителем становится....
07. Последствия
08. Когда встречаются крайности
09. Послание из прошлого
10. Перелом
11. Скелеты в шкафу
12. Конец игры
Сезон 2:
01. Мятежный дух
02. Южное сияние
03. Гражданские войны, Часть 1
04. Гражданские войны, Часть 2
05. Миротворцы
06. Приманка
07. Начало начал, Часть 1
08. Начало начал, Часть 2
09. Проводник
10. Новая эра духов
11. Ночь тысячи звёзд
12. Гармоничное сближение
13. Тьма опускается
14. Свет во тьме
 
General
Complete name : D:\IPTV\Легенда о Корре\The Legend of Korra.s01.e01.mpg
Format : MPEG-PS
File size : 409 MiB
Duration : 22mn 39s
Overall bit rate mode : Variable
Overall bit rate : 2 522 Kbps

Video
ID : 224 (0xE0)
Format : MPEG Video
Format version : Version 2
Format profile : Main@Main
Format settings, BVOP : Yes
Format settings, Matrix : Custom
Format settings, GOP : M=3, N=12
Duration : 22mn 39s
Bit rate mode : Variable
Bit rate : 2 280 Kbps
Maximum bit rate : 10 000 Kbps
Width : 720 pixels
Height : 576 pixels
Display aspect ratio : 16:9
Frame rate : 25.000 fps
Standard : PAL
Color space : YUV
Chroma subsampling : 4:2:0
Bit depth : 8 bits
Scan type : Interlaced
Scan order : Top Field First
Compression mode : Lossy
Bits/(Pixel*Frame) : 0.220
Time code of first frame : 00:00:00:00
Time code source : Group of pictures header
Stream size : 369 MiB (90%)

Audio
ID : 192 (0xC0)
Format : MPEG Audio
Format version : Version 1
Format profile : Layer 2
Duration : 22mn 39s
Bit rate mode : Constant
Bit rate : 192 Kbps
Channel(s) : 2 channels
Sampling rate : 48.0 KHz
Compression mode : Lossy
Stream size : 31.1 MiB (8%)
info [Профиль]  [ЛС] 

Corvus_D

Пол: Пол:Муж

Стаж: 4 года 11 месяцев

Сообщений: 8

Россия
Рейтинг

post 12-Июн-2014 21:41 (спустя 9 дней) [-]0[+]

[Цитировать] 

А hd версия планируется?
info [Профиль]  [ЛС] 

Mishkan

Пол: Пол:Муж

Стаж: 3 года 9 месяцев

Сообщений: 15

Рейтинг

post 29-Июн-2014 17:40 (спустя 16 дней) [-]0[+]

[Цитировать] 

Поддерживаю вопрос, сам видел "трейлер" 3го сезона и там естественно hd формат, смотрится очень здорово.
зы - корра типичная ТП ;-)
info [Профиль]  [ЛС] 

algorythm

Пол: Пол:Муж

Стаж: 7 лет 6 месяцев

Сообщений: 57

Украина
Рейтинг

post 06-Авг-2014 16:33 (спустя 1 месяц 6 дней) [-]0[+]

[Цитировать] 

Mishkan
Бывают у нее просветления, а выглядит иногда как ТП, эт точно.
info [Профиль]  [ЛС] 
Показать сообщения:    
Ответить на тему

Текущее время: 11-Дек 12:08

Часовой пояс: GMT + 4



Вы не можете начинать темы
Вы не можете отвечать на сообщения
Вы не можете редактировать свои сообщения
Вы не можете удалять свои сообщения
Вы не можете голосовать в опросах
Вы не можете прикреплять файлы к сообщениям
Вы не можете скачивать файлы