Ошибка

КВН 2014. Высшая лига. Четвертая 1/8 финала [2014 г., юмористическое ТВ-шоу, HDTVRip-AVC]

Ответить на тему
 
Автор Сообщение

Alex Ander

Пол: Пол:Муж

Стаж: 7 лет 5 месяцев

Сообщений: 2379

СССР
Рейтинг

post 01-Июн-2014 13:23 0[+]

[Цитировать] 

КВН 2014. Высшая лига. Четвертая 1/8 финала

Год выпуска: 2014
Страна: Россия
Жанр: юмористическое ТВ-шоу
Продолжительность: 01:50:27

Дата игры: 10.03.2014
Дата эфира: 13.04.2014

Тема сезона: Перезагрузка
Тема игры: Осень

Команды:
    Сборная РУДН, Спарта, Сборная МФЮА, Детективное агентство "Лунный свет", Плохая компания
Описание:
    Перезагрузка продолжается. Меняются времена года и вместе с ними меняется и тема игры. На сей раз тема игры "Осень" и, соответственно, шутки все об осени. Как и в предыдущих играх сезона более опытные команды соревнуются с новичками.
Жюри:
    Леонид Якубович, Валдис Пельш, Дмитрий Нагиев, Юлий Гусман, Николай Фоменко, Михаил Ефремов, Михаил Галустян


Качество: HDTVRip
Формат: MKV
Видео кодек: H.264
Аудио кодек: MP3
Видео: 720x408 25 fps 1465 kpps
Аудио: 48.0 KHz, 2 ch 384 kbps
Приветствие Осенний марафон

Сборная РУДН
- случай в команде РУДН
- кавказец, который избегает драк
- тёмной ночью на городск4ой улице
- инженер "Тойоты" на экскурсии на "Автовазе"
- программа "Жить здорово!" с Еленой Малишамбой
- Анита знакомит парня со своей семьёй

Спарта
- во дворе
- представитель Каахстана у разработчиков компьютерных игр
- танцевальный коллектив на своём последнем прощальном концерте
- разговоры маленьких детей
- выступление казахского национального академического хора

Сборная МФЮА
- на одной из игр Игнашевичу не достался ребёнок
- Дмитрий Нагиев в парикмахерской
- корпоратив работников передачи "Поле чудес"
- ребёнок уходит из дома
- уроки самообороны на телевидении
- российская сборная в раздевалке сразу после матча с финнами

Детективное агентство "Лунный свет"
- в пункте приёма крови
- таксист без фантазии
- на программе "Поле чудес" украли барабан
- реалистичный следственный эксперимент

Плохая компания
- предъявы от полиции
- отца везут кодироваться
- в раздевалке ФК "Железногорский атом"
- на чартерном рейсе Москва-Анталия
- депутат у гадалки

Биатлон Листопад
Игра на вылет за целый балл. Но нервов и бессонных ночей на этот конкурс у команд уходит больше, чем на балл.

СТЭМ Сезон охоты

Спарта
- сотрудник милиции приехал из Астаны в Москву по обмену опытом

Детективное агентство "Лунный свет"
- охотник поневоле на загородной трассе

Плохая компания
- в обычной российской деревне за 100 километров от Москвы

Сборная РУДН
- отделение полиции в РУДН

Сборная МФЮА
- девушка нашла себе парня точь-в-точь как свой отец

Музыкальный номер Золотая пора

Плохая компания
- в кабинете директора молодёжного творческого центра

Спарта
- песня про казахов (Валентина Толкунова - "Я не могу иначе")

Детективное агентство "Лунный свет"
- два друга записывают ролик для интернета

Сборная МФЮА
- песня про процесс написания песни для музыкального номера

Сборная РУДН
- как выглядели бы российские песни, если бы у нас жили американцы
General
Unique ID : 189017598865690794299427445910194798231 (0x8E3377224D60948ABA9DD546BDE6BE97)
Complete name :
Format : Matroska
Format version : Version 4 / Version 2
File size : 1.43 GiB
Duration : 1h 50mn
Overall bit rate : 1 851 Kbps
Encoded date : UTC 2014-04-14 09:49:44
Writing application : mkvmerge v6.8.0 ('Theme for Great Cities') 32bit built on Mar 2 2014 21:27:07
Writing library : libebml v1.3.0 + libmatroska v1.4.1
Attachment : Yes

Video
ID : 1
Format : AVC
Format/Info : Advanced Video Codec
Format profile : High@L3.1
Format settings, CABAC : Yes
Format settings, ReFrames : 8 frames
Codec ID : V_MPEG4/ISO/AVC
Duration : 1h 50mn
Bit rate : 1 465 Kbps
Width : 720 pixels
Height : 408 pixels
Display aspect ratio : 16:9
Original display aspect ratio : 16:9
Frame rate mode : Constant
Frame rate : 25.000 fps
Color space : YUV
Chroma subsampling : 4:2:0
Bit depth : 8 bits
Scan type : Progressive
Bits/(Pixel*Frame) : 0.199
Stream size : 1.10 GiB (77%)
Writing library : x264 core 128 r2216M 198a7ea
Encoding settings : cabac=1 / ref=9 / deblock=1:0:0 / analyse=0x3:0x133 / me=umh / subme=11 / psy=1 / psy_rd=1.00:0.20 / mixed_ref=1 / me_range=32 / chroma_me=1 / trellis=2 / 8x8dct=1 / cqm=0 / deadzone=21,11 / fast_pskip=0 / chroma_qp_offset=-3 / threads=6 / lookahead_threads=1 / sliced_threads=0 / nr=0 / decimate=1 / interlaced=0 / bluray_compat=0 / constrained_intra=0 / bframes=9 / b_pyramid=1 / b_adapt=2 / b_bias=0 / direct=3 / weightb=1 / open_gop=0 / weightp=2 / keyint=250 / keyint_min=25 / scenecut=40 / intra_refresh=0 / rc_lookahead=40 / rc=2pass / mbtree=1 / bitrate=1465 / ratetol=1.0 / qcomp=0.60 / qpmin=10 / qpmax=51 / qpstep=4 / cplxblur=20.0 / qblur=0.5 / ip_ratio=1.40 / aq=1:1.00
Language : Russian
Default : Yes
Forced : No

Audio
ID : 2
Format : AC-3
Format/Info : Audio Coding 3
Mode extension : CM (complete main)
Format settings, Endianness : Big
Codec ID : A_AC3
Duration : 1h 50mn
Bit rate mode : Constant
Bit rate : 384 Kbps
Channel(s) : 6 channels
Channel positions : Front: L C R, Side: L R, LFE
Sampling rate : 48.0 KHz
Bit depth : 16 bits
Compression mode : Lossy
Stream size : 303 MiB (21%)
Language : Russian
Default : Yes
Forced : No
info [Профиль]  [ЛС] 
Показать сообщения:    
Ответить на тему

Текущее время: 03-Дек 04:27

Часовой пояс: GMT + 4



Вы не можете начинать темы
Вы не можете отвечать на сообщения
Вы не можете редактировать свои сообщения
Вы не можете удалять свои сообщения
Вы не можете голосовать в опросах
Вы не можете прикреплять файлы к сообщениям
Вы не можете скачивать файлы