Ошибка

КВН 2014. Высшая лига. Третья 1/8 финала [2014 г., юмористическое ТВ-шоу, HDTVRip-AVC]

Ответить на тему
 
Автор Сообщение

Alex Ander

Пол: Пол:Муж

Стаж: 7 лет 5 месяцев

Сообщений: 2379

СССР
Рейтинг

post 01-Июн-2014 13:11 0[+]

[Цитировать] 

КВН 2014. Высшая лига. Третья 1/8 финала

Год выпуска: 2014
Страна: Россия
Жанр: юмористическое ТВ-шоу
Продолжительность: 01:50:44

Дата игры: 04.03.2014
Дата эфира: 30.03.2014

Тема сезона: Перезагрузка
Тема игры: Лето

Команды:
    Лас-Вегас, Северное слияние, Сборная Чеченской республики, Молодость, Сборная Физтеха
Описание:
    Перезагрузка продолжается. Меняются времена года и вместе с ними меняется и тема игры. На сей раз тема игры "Лето" и, соответственно, шутки все о лете и летнем обострении. Как и в предыдущих играх сезона игре более опытные команды соревнуются с новичками.
Жюри:
    Никита Ефремов, Валдис Пельш, Дмитрий Нагиев, Николай Фоменко, Михаил Галустян, Юлий Гусман


Качество: HDTVRip
Формат: MKV
Видео кодек: H.264
Аудио кодек: MP3
Видео: 720x408 25 fps 1465 kpps
Аудио: 48.0 KHz, 2 ch 192 kbps
Приветствие Лето в городе N

Лас-Вегас
- в московском банке
- танцы под известные хиты
- ВВП на открытии спортивного объекта
- у наркодилера в самолёте в животе лопнула капсула с наркотиками
- ребрендинг передач Первого канала

Северное слияние
- строители сдали дом, но осталось 28 лишних кирпичей
- на кассе в супермаркете
- вечером обычная семейная пара засыпает
- на сибирской свадьбе идёт уже 5 час выкупа
- постолимпийское стихотворение Виктора Ана

Сборная Чеченской республики
- взаимное непонимание
- под окнами многоэтажки
- Криштиану Роналду в тёмном переулке
- чечен в плену у немцев во время ВОВ
- чеченский симфонический оркестр

Молодость
- цели команды
- утренняя йога
- трое гопников и обычный сибирский мужик
- на дороге
- сибирский мужик на отпуске в Тайланде
- пенная вечеринка в ночном клубе

Сборная Физтеха
- идеи в голове у физика
- физик в 16 веке
- подготовка в министерстве спорта к чемпионату мира по футболу

Биатлон Весенняя капель
Игра на вылет за целый балл. Но нервов и бессонных ночей на этот конкурс у команд уходит больше, чем на балл.

СТЭМ Дачный сезон

Северное слияние
- семейная пара на приёме у психолога по окончании дачного сезона

Лас-Вегас
- занятие с персональным учителем свадебных танцев

Сборная Физтеха
- лето на северном полюсе

Молодость
- попытка сказать лучшему другу о встречах с его девушкой

Сборная Чеченской республики
- маленький мальчик и чеченцы в московском торговом центре

Музыкальный номер Лето – это маленькая жизнь

Молодость
- песня об отличиях сибирских мужиков (Русская народная - "Барыня-сударыня")

Северное слияние
- ночной концерт в квартире Скворцовых

Лас-Вегас
- современная молодёжь учит родителей жизни

Сборная Чеченской республики
- первый чеченский boys-band

Сборная Физтеха
- песня о хорошо забытым старым (Riccardo Fogli - "Storie di tutti i giorni")
General
Unique ID : 223520112540636960579108288172849173195 (0xA828686505C5C3989565C66CC73912CB)
Complete name :
Format : Matroska
Format version : Version 4 / Version 2
File size : 1.28 GiB
Duration : 1h 50mn
Overall bit rate : 1 659 Kbps
Encoded date : UTC 2014-03-31 20:41:54
Writing application : mkvmerge v6.8.0 ('Theme for Great Cities') 32bit built on Mar 2 2014 21:27:07
Writing library : libebml v1.3.0 + libmatroska v1.4.1
Attachment : Yes

Video
ID : 1
Format : AVC
Format/Info : Advanced Video Codec
Format profile : High@L3.1
Format settings, CABAC : Yes
Format settings, ReFrames : 8 frames
Codec ID : V_MPEG4/ISO/AVC
Duration : 1h 50mn
Bit rate : 1 465 Kbps
Width : 720 pixels
Height : 408 pixels
Display aspect ratio : 16:9
Original display aspect ratio : 16:9
Frame rate mode : Constant
Frame rate : 25.000 fps
Color space : YUV
Chroma subsampling : 4:2:0
Bit depth : 8 bits
Scan type : Progressive
Bits/(Pixel*Frame) : 0.199
Stream size : 1.11 GiB (86%)
Writing library : x264 core 128 r2216M 198a7ea
Encoding settings : cabac=1 / ref=9 / deblock=1:0:0 / analyse=0x3:0x133 / me=umh / subme=11 / psy=1 / psy_rd=1.00:0.20 / mixed_ref=1 / me_range=32 / chroma_me=1 / trellis=2 / 8x8dct=1 / cqm=0 / deadzone=21,11 / fast_pskip=0 / chroma_qp_offset=-3 / threads=6 / lookahead_threads=1 / sliced_threads=0 / nr=0 / decimate=1 / interlaced=0 / bluray_compat=0 / constrained_intra=0 / bframes=9 / b_pyramid=1 / b_adapt=2 / b_bias=0 / direct=3 / weightb=1 / open_gop=0 / weightp=2 / keyint=250 / keyint_min=25 / scenecut=40 / intra_refresh=0 / rc_lookahead=40 / rc=2pass / mbtree=1 / bitrate=1465 / ratetol=1.0 / qcomp=0.60 / qpmin=10 / qpmax=51 / qpstep=4 / cplxblur=20.0 / qblur=0.5 / ip_ratio=1.40 / aq=1:1.00
Language : Russian
Default : Yes
Forced : No

Audio
ID : 2
Format : MPEG Audio
Format version : Version 1
Format profile : Layer 2
Codec ID : A_MPEG/L2
Codec ID/Hint : MP2
Duration : 1h 50mn
Bit rate mode : Constant
Bit rate : 192 Kbps
Channel(s) : 2 channels
Sampling rate : 48.0 KHz
Compression mode : Lossy
Stream size : 152 MiB (12%)
Language : Russian
Default : Yes
Forced : No
info [Профиль]  [ЛС] 
Показать сообщения:    
Ответить на тему

Текущее время: 05-Дек 16:37

Часовой пояс: GMT + 4



Вы не можете начинать темы
Вы не можете отвечать на сообщения
Вы не можете редактировать свои сообщения
Вы не можете удалять свои сообщения
Вы не можете голосовать в опросах
Вы не можете прикреплять файлы к сообщениям
Вы не можете скачивать файлы