Ошибка

Помпеи / Pompeii (Пол У. С. Андерсон) [2014, боевик, драма, мелодрама, приключения , BDRip 1080p 3D (HOU)][Вертикальная аноморфная стерео пара]

Ответить на тему
 
Автор Сообщение

koss555

Пол: Пол:Муж

Стаж: 4 года 11 месяцев

Сообщений: 1549

Россия
Рейтинг

post 13-Май-2014 18:58 2[+]

[Цитировать] 

Помпеи / Pompeii
«Некоторые истории пишутся кровью»

Год выпуска: 2014
Страна: Канада , Германия
Жанр: боевик, драма, мелодрама, приключения
Продолжительность: 01:45:02
Перевод: Дублированный [iTunes Russia]

Режиссер: Пол У. С. Андерсон
Сценарий: Джанет Скотт Бэчлер, Ли Бэчлер, Майкл Роберт Джонсон
Продюсер: Пол У. С. Андерсон, Джереми Болт, Дон Кармоди
Оператор: Глен МакФерсон
Композитор: Клинтон Шотер
Художник: Пол Д. Остерберри, Венди Патридж, Джеффри А. Мелвин
Монтаж: Мишель Конрой

В ролях: Кит Харингтон / Kit Harington (Milo), Эмили Браунинг / Emily Browning (Cassia), Кифер Сазерленд / Kiefer Sutherland (Corvus), Адевале Акинойе-Агбаже / Adewale Akinnuoye-Agbaje (Atticus), Джаред Харрис / Jared Harris (Severus), Кэрри-Энн Мосс / Carrie-Anne Moss (Aurelia), Джессика Лукас / Jessica Lucas (Ariadne), Саша Ройз / Sasha Roiz (Proculus)


Описание: История любви раба Майло и благородной Кассии, обрученной с римским сенатором, на фоне извержения Везувия, которое навсегда стерло с лица земли древнеримский город Помпеи…

Бюджет: $100 000 000
Сборы в США: $23 219 748
Сборы в мире: + $60 815 827 = $84 035 575 сборы
Сборы в России: $11 423 255
Зрители: Россия 1.42 млн , Корея Южная 1.36 млн , Мексика 1.1 млн
Премьера (мир): 18 февраля 2014
Премьера (РФ): 19 февраля 2014, «Парадиз» 3D
Релиз на DVD: 20 мая 2014«Парадиз / Активижен»
Релиз на Blu-Ray: 20 мая 2014 «Парадиз / Активижен»
Рейтинг MPAA: Детям до 13 лет просмотр не желателен



Качество: BDRip 1080p 3D (HOU)
Формат: MKV
Видео кодек: AVC
Аудио кодеk: AC3
Видео: 1920x1080 (16:9), 23.976 fps, AVC, 11.9 Mbps
Аудио: Аудио #1Russian: AC3, 384 Kbps, 48.0 KHz, 6 ch
Аудио #2English: DTS, 1 510 Kbps, 48.0 KHz, 6 ch
· Для съемок крупномасштабных сцен оператор Глен МакФерсон создал оригинальную конструкцию: он прикрепил камеру к вертолету с дистанционным управлением, который поднимался на высоту свыше 60 метров. Таким образом, создатели получили уникальные кадры, позволяющие зрителю увидеть историю и трагедию Помпей в масштабе места и времени.

· По словам продюсера Джереми Болта, создатели приложили максимум сил, чтобы сохранить в фильме «Помпеи» историческую правду. Да, основные герои вымышленные, но их образы и имена соответствуют реальным людям того исторического периода. Точное время, хронология и обстоятельства извержения Везувия воссозданы настолько правдиво, насколько это возможно в кино.

· Во время подготовки к съемкам, чтобы как можно более точно воссоздать сцены катастрофы 2000-летней давности, создатели тщательно изучили видеосъемки реальных природных явлений — землетрясений, извержений вулканов, смерчей.

· Один из крупнейших городов Римской империи Помпеи с его величественными храмами, аренами и банями был воссоздан благодаря грандиозным декорациям. Всего лишь треть антуража фильма сделана с помощью компьютерной графики.
General
Complete name : Pompei.2014.D.HOU.BDRip.1080p.mkv
Format : Matroska
File size : 10.3 GiB
Duration : 1h 45mn
Overall bit rate : 14.1 Mbps
Movie name : Pompeii (2014)
Encoded date : UTC 2014-05-12 19:19:48
Writing application : mkvmerge v6.9.1 ('Blue Panther') 64bit built on Apr 18 2014 18:23:38
Writing library : libebml v1.3.0 + libmatroska v1.4.1

Video
ID : 1
Format : AVC
Format/Info : Advanced Video Codec
Format profile : High@L4.1
Format settings, CABAC : Yes
Format settings, ReFrames : 4 frames
Muxing mode : Container profile=Unknown@4.1
Codec ID : V_MPEG4/ISO/AVC
Duration : 1h 45mn
Bit rate : 11.9 Mbps
Width : 1 920 pixels
Height : 1 080 pixels
Display aspect ratio : 16:9
Frame rate : 23.976 fps
Color space : YUV
Chroma subsampling : 4:2:0
Bit depth : 8 bits
Scan type : Progressive
Bits/(Pixel*Frame) : 0.240
Stream size : 8.74 GiB (85%)
Title : Помпеи-Pompeii.(2014).BDRip.[1080p].3D

Audio #1
ID : 2
Format : AC-3
Format/Info : Audio Coding 3
Mode extension : CM (complete main)
Codec ID : A_AC3
Duration : 1h 45mn
Bit rate mode : Constant
Bit rate : 384 Kbps
Channel(s) : 6 channels
Channel positions : Front: L C R, Side: L R, LFE
Sampling rate : 48.0 KHz
Bit depth : 16 bits
Stream size : 288 MiB (3%)
Language : Russian

Audio #2
ID : 3
Format : DTS
Format/Info : Digital Theater Systems
Codec ID : A_DTS
Duration : 1h 45mn
Bit rate mode : Constant
Bit rate : 1 510 Kbps
Channel(s) : 6 channels
Channel positions : Front: L C R, Side: L R, LFE
Sampling rate : 48.0 KHz
Bit depth : 24 bits
Stream size : 1.11 GiB (11%)
Title : DTS 5.1 / 1536 kbps / Original

Text #1
ID : 4
Format : UTF-8
Codec ID : S_TEXT/UTF8
Codec ID/Info : UTF-8 Plain Text
Title : Full

Text #2
ID : 5
Format : UTF-8
Codec ID : S_TEXT/UTF8
Codec ID/Info : UTF-8 Plain Text
Title : SDH

Menu
00:00:00.000 : en:00:00:00.000
00:05:27.077 : en:00:05:27.077
00:09:51.674 : en:00:09:51.674
00:15:58.457 : en:00:15:58.457
00:19:52.858 : en:00:19:52.858
00:26:45.103 : en:00:26:45.103
00:32:36.621 : en:00:32:36.621
00:38:18.838 : en:00:38:18.838
00:47:35.811 : en:00:47:35.811
00:52:17.718 : en:00:52:17.718
01:03:25.218 : en:01:03:25.218
01:09:02.930 : en:01:09:02.930
01:17:27.309 : en:01:17:27.309
01:23:46.521 : en:01:23:46.521
01:30:04.149 : en:01:30:04.149
01:35:08.119 : en:01:35:08.119
info [Профиль]  [ЛС] 

post 13-Май-2014 18:59 (спустя 49 секунд) [-]0[+]

Топик был перенесен из форума Оформление раздач (Кинематограф) в форум 3D

koss555
 

lampard960

Пол: Пол:Муж

Стаж: 4 года 11 месяцев

Сообщений: 619

Ангилья
Рейтинг

post 14-Май-2014 11:23 (спустя 16 часов) [-]0[+]

[Цитировать] 

отличный фильм. если бы не знал об этой трагедии , то было бы еще интереснее.

_________________
info [Профиль]  [ЛС] 
Показать сообщения:    
Ответить на тему

Текущее время: 08-Дек 02:18

Часовой пояс: GMT + 4



Вы не можете начинать темы
Вы не можете отвечать на сообщения
Вы не можете редактировать свои сообщения
Вы не можете удалять свои сообщения
Вы не можете голосовать в опросах
Вы не можете прикреплять файлы к сообщениям
Вы не можете скачивать файлы