Ошибка

До окончания фрилича осталось:


Парад Победы (Севастополь) [09.05.2014 г., Военный парад HDTV 1080i]

Тема закрыта
 
Автор Сообщение

CooL

Пол: Пол:Муж

Стаж: 6 лет 9 месяцев

Сообщений: 1235

СССР
Рейтинг

post 09-Май-2014 23:25 4[+]

[Цитировать] 

pic="http://s001.youpic.su/pictures/1399579200/adfb252331d6977be9f82eeb99995055.png"


Парад Победы | Севастополь
Военный парад, посвящённый 69-ой годовщине Победы в Великой Отечественной войне


Жанр: Военный парад
Дата/Год выпуска: 09.05.2014
Язык комментариев: Русский
Продолжительность: 00:35:52
Описание: Военнo-морской и воздушный парады из Севастополя, посвященные 69-й годовщине Победы в Великой Отечественной войне 1941-1945 годов. Севастополь.
Автор рипа/записи:
Mouha
Качество: HDTV 1080i
Формат:TS
Видео кодек: H264
Аудио кодек: AC3
Видео: H264, 1920x1080 (16:9); 25.000 fps; 9 136 Kbps; 0.176 bit/pixel
Аудио : 48 kHz, AC3 Dolby Digital, 3/2 (L,C,R,l,r) + LFE ch, ~384 kbps
Общее
Идентификатор : 1 (0x1)
Полное имя : Z:\Parad Pobedy Sevastopol 090514.ts
Формат : MPEG-TS
Размер файла : 2,51 Гбайт
Продолжительность : 35 м.
Режим общего битрейта : Переменный
Общий поток : 10,0 Мбит/сек

Видео
Идентификатор : 305 (0x131)
Идентификатор меню : 1 (0x1)
Формат : AVC
Формат/Информация : Advanced Video Codec
Профиль формата : High@L4.0
Параметр CABAC формата : Да
Параметр ReFrames формата : 3 кадра
Параметр GOP формата : M=4, N=28
Идентификатор кодека : 27
Продолжительность : 35 м.
Битрейт : 9136 Кбит/сек
Ширина : 1920 пикселей
Высота : 1080 пикселей
Соотношение сторон : 16:9
Частота кадров : 25,000 кадров/сек
Стандарт вещания : Component
Цветовое пространство : YUV
Субдискретизация насыщенности : 4:2:0
Битовая глубина : 8 бит
Тип развёртки : Чересстрочная
Порядок развёртки : Верхнее поле первое
Бит/(Пиксели*Кадры) : 0.176
Размер потока : 2,29 Гбайт (91%)
Основные цвета : BT.709
Характеристики трансфера : BT.709
Коэффициенты матрицы : BT.709

Аудио
Идентификатор : 415 (0x19F)
Идентификатор меню : 1 (0x1)
Формат : AC-3
Формат/Информация : Audio Coding 3
Расширение режима : CM (complete main)
Параметр Endianness формата : Big
Идентификатор кодека : 6
Продолжительность : 35 м.
Вид битрейта : Постоянный
Битрейт : 384 Кбит/сек
Каналы : 6 каналов
Расположение каналов : Front: L C R, Side: L R, LFE
Частота : 48,0 КГц
Битовая глубина : 16 бит
Метод сжатия : С потерями
Размер потока : 98,6 Мбайт (4%)
Язык : Russian
info [Профиль]  [ЛС] 
Показать сообщения:    
Тема закрыта

Текущее время: 10-Дек 18:47

Часовой пояс: GMT + 4



Вы не можете начинать темы
Вы не можете отвечать на сообщения
Вы не можете редактировать свои сообщения
Вы не можете удалять свои сообщения
Вы не можете голосовать в опросах
Вы не можете прикреплять файлы к сообщениям
Вы не можете скачивать файлы