Ошибка

Феи: Волшебное спасение / Tinker Bell and the Great Fairy Rescue (Брэдли Рэймонд) [2010 г., фэнтези, приключения, семейный, мультфильм, BDRip 720p]

Ответить на тему
 
Автор Сообщение

LyaKich

Пол: Пол:Муж

Стаж: 6 лет 3 месяца

Сообщений: 6303

Россия
Рейтинг

post 07-Май-2014 21:14 1[+]

[Цитировать] 

Феи: Волшебное спасение / Tinker Bell and the Great Fairy Rescue

Год выхода: 2010
Выпущено: США
Жанр: фэнтези, приключения, семейный, мультфильм
Продолжительность: 01:16:27
Перевод: |Дубляж|
Субтитры: Russian, Russian (forced), Ukrainian, Ukrainian (forced), English
Режиссер: Брэдли Рэймонд
В ролях: Майкл Шин, Мэй Уитман, Кристин Ченоуэт, Люси Лью, Памела Адлон, Рэйвен, Джесси МакКартни, Джефф Беннетт, Роб Полсен, Фэйт Принс

Сюжет фильма:

Однажды Фея Динь-Динь встретила Лизи, маленькую девочку с твердой верой в волшебство. У Динь-Динь возникает привязанность к любопытной девочке, которой так нужен друг. Ради нее она идет на огромный риск, подвергая опасности свою жизнь и будущее всей страны Фей.

Качество: BDRip 720p
Формат: MKV
Видео: 1280x720 at 23.976 fps, MPEG-4 AVC, ~3186 kbps avg
Аудио#1: Russian: 48 kHz, AC3, 3/2 (L,C,R,l,r) + LFE ch, ~640.00 kbps avg |Дубляж, Blu-ray CEE|
Аудио#2: Ukrainian: 48 kHz, AC3, 3/2 (L,C,R,l,r) + LFE ch, ~640.00 kbps avg |Дубляж, Blu-ray CEE|
Аудио#3: English: 48 kHz, DTS, 3/2 (L,C,R,l,r) + LFE ch, ~1536.00 kbps avg
Релиз:

Код:

Общее
Уникальный идентификатор                 : 231905487566115012125154353614409373170 (0xAE775F4D8DD38F0B986B469C92FF15F2)
Полное имя                               : D:\Tinker.Bell.and.the.Great.Fairy.Rescue.2010.720p.BluRay.Rus.Ukr.Eng.HDCLUB.mkv
Формат                                   : Matroska
Версия формата                           : Version 2
Размер файла                             : 3,19 Гбайт
Продолжительность                        : 1 ч. 16 м.
Общий поток                              : 5975 Кбит/сек
Название фильма                          : Tinker Bell and the Great Fairy Rescue (2010) - Release for HDCLUB
Дата кодирования                         : UTC 2010-09-29 08:02:41
Программа кодирования                    : mkvmerge v3.4.0 ('Rapunzel') сборка от May 15 2010 09:38:20
Библиотека кодирования                   : libebml v0.8.0 + libmatroska v0.9.0

Видео
Идентификатор                            : 1
Формат                                   : AVC
Формат/Информация                        : Advanced Video Codec
Профиль формата                          : High@L4.1
Параметр CABAC формата                   : Да
Параметр ReFrames формата                : 7 кадров
Идентификатор кодека                     : V_MPEG4/ISO/AVC
Продолжительность                        : 1 ч. 16 м.
Битрейт                                  : 3186 Кбит/сек
Ширина                                   : 1280 пикселей
Высота                                   : 720 пикселей
Соотношение сторон                       : 16:9
Режим частоты кадров                     : Постоянный
Частота кадров                           : 23,976 кадра/сек
Цветовое пространство                    : YUV
Субдискретизация насыщенности            : 4:2:0
Битовая глубина                          : 8 бит
Тип развёртки                            : Прогрессивная
Бит/(Пиксели*Кадры)                      : 0.144
Размер потока                            : 1,64 Гбайт (51%)
Заголовок                                : Release for HDCLUB
Библиотека кодирования                   : x264 core 80 r1376M 3feaec2
Настройки программы                      : cabac=1 / ref=7 / deblock=1:-3:-3 / analyse=0x3:0x133 / me=esa / subme=10 / psy=1 / psy_rd=0.9:0.0 / mixed_ref=1 / me_range=64 / chroma_me=1 / trellis=2 / 8x8dct=1 / cqm=0 / deadzone=21,11 / fast_pskip=0 / chroma_qp_offset=-2 / threads=12 / sliced_threads=0 / nr=0 / decimate=0 / mbaff=0 / constrained_intra=0 / bframes=12 / b_pyramid=0 / b_adapt=2 / b_bias=0 / direct=3 / wpredb=1 / wpredp=2 / keyint=250 / keyint_min=25 / scenecut=40 / rc_lookahead=120 / rc=2pass / mbtree=1 / bitrate=3186 / ratetol=2.0 / qcomp=0.60 / qpmin=10 / qpmax=51 / qpstep=4 / cplxblur=20.0 / qblur=0.5 / vbv_maxrate=50000 / vbv_bufsize=50000 / ip_ratio=1.40 / aq=1:1.00
Язык                                     : English
Default                                  : Да
Forced                                   : Да

Аудио #1
Идентификатор                            : 2
Формат                                   : AC-3
Формат/Информация                        : Audio Coding 3
Расширение режима                        : CM (complete main)
Параметр Endianness формата              : Big
Идентификатор кодека                     : A_AC3
Продолжительность                        : 1 ч. 16 м.
Вид битрейта                             : Постоянный
Битрейт                                  : 640 Кбит/сек
Каналы                                   : 6 каналов
Расположение каналов                     : Front: L C R, Side: L R, LFE
Частота                                  : 48,0 КГц
Битовая глубина                          : 16 бит
Метод сжатия                             : С потерями
Размер потока                            : 350 Мбайт (11%)
Заголовок                                : Дубляж, Blu-ray CEE [AC3 5.1, 640 kbps]
Язык                                     : Russian
Default                                  : Да
Forced                                   : Да

Аудио #2
Идентификатор                            : 3
Формат                                   : AC-3
Формат/Информация                        : Audio Coding 3
Расширение режима                        : CM (complete main)
Параметр Endianness формата              : Big
Идентификатор кодека                     : A_AC3
Продолжительность                        : 1 ч. 16 м.
Вид битрейта                             : Постоянный
Битрейт                                  : 640 Кбит/сек
Каналы                                   : 6 каналов
Расположение каналов                     : Front: L C R, Side: L R, LFE
Частота                                  : 48,0 КГц
Битовая глубина                          : 16 бит
Метод сжатия                             : С потерями
Размер потока                            : 350 Мбайт (11%)
Заголовок                                : Дубляж, Blu-ray CEE [AC3, 5.1, 640 kbps]
Язык                                     : Ukrainian
Default                                  : Нет
Forced                                   : Нет

Аудио #3
Идентификатор                            : 4
Формат                                   : DTS
Формат/Информация                        : Digital Theater Systems
Режим                                    : 16
Параметр Endianness формата              : Big
Идентификатор кодека                     : A_DTS
Продолжительность                        : 1 ч. 16 м.
Вид битрейта                             : Постоянный
Битрейт                                  : 1509 Кбит/сек
Каналы                                   : 6 каналов
Расположение каналов                     : Front: L C R, Side: L R, LFE
Частота                                  : 48,0 КГц
Битовая глубина                          : 24 бит
Метод сжатия                             : С потерями
Размер потока                            : 825 Мбайт (25%)
Заголовок                                : Original English [DTS 5.1, 1536 kbps]
Язык                                     : English
Default                                  : Нет
Forced                                   : Нет

Текст #1
Идентификатор                            : 5
Формат                                   : UTF-8
Идентификатор кодека                     : S_TEXT/UTF8
Идентификатор кодека/Информация          : UTF-8 Plain Text
Заголовок                                : Русские субтитры (надписи)
Язык                                     : Russian
Default                                  : Нет
Forced                                   : Нет

Текст #2
Идентификатор                            : 6
Формат                                   : UTF-8
Идентификатор кодека                     : S_TEXT/UTF8
Идентификатор кодека/Информация          : UTF-8 Plain Text
Заголовок                                : Українські субтитри (написи)
Язык                                     : Ukrainian
Default                                  : Нет
Forced                                   : Нет

Текст #3
Идентификатор                            : 7
Формат                                   : UTF-8
Идентификатор кодека                     : S_TEXT/UTF8
Идентификатор кодека/Информация          : UTF-8 Plain Text
Заголовок                                : Русские субтитры
Язык                                     : Russian
Default                                  : Нет
Forced                                   : Нет

Текст #4
Идентификатор                            : 8
Формат                                   : UTF-8
Идентификатор кодека                     : S_TEXT/UTF8
Идентификатор кодека/Информация          : UTF-8 Plain Text
Заголовок                                : Українські субтитри
Язык                                     : Ukrainian
Default                                  : Нет
Forced                                   : Нет

Текст #5
Идентификатор                            : 9
Формат                                   : UTF-8
Идентификатор кодека                     : S_TEXT/UTF8
Идентификатор кодека/Информация          : UTF-8 Plain Text
Заголовок                                : English subtitles
Язык                                     : English
Default                                  : Нет
Forced                                   : Нет

Текст #6
Идентификатор                            : 10
Формат                                   : UTF-8
Идентификатор кодека                     : S_TEXT/UTF8
Идентификатор кодека/Информация          : UTF-8 Plain Text
Заголовок                                : English subtitles
Язык                                     : English
Default                                  : Нет
Forced                                   : Нет

Меню
00:00:00.000                             : :1. Main Titles
00:05:40.549                             : :2. The Human House
00:11:25.226                             : :3. Fairies Welcome
00:16:54.889                             : :4. Captivity
00:22:36.981                             : :5. I Just Want to Be Your Friend
00:27:39.533                             : :6. Rescue Party
00:35:22.829                             : :7. Heading Home
00:42:18.202                             : :8. Fixing the Leaks
00:48:14.266                             : :9. Learning to Fly
00:56:11.159                             : :10. Fairies Are Real
00:59:58.929                             : :11. Saving Vidia
01:09:48.393                             : :12. End Credits
info [Профиль]  [ЛС] 

post 07-Май-2014 21:38 (спустя 23 минуты) [-]0[+]

Топик был перенесен из форума Зарубежное кино | HD Rips в форум Мультфильмы (HD Video)

BZzz
 
Показать сообщения:    
Ответить на тему

Текущее время: 04-Дек 01:56

Часовой пояс: GMT + 4



Вы не можете начинать темы
Вы не можете отвечать на сообщения
Вы не можете редактировать свои сообщения
Вы не можете удалять свои сообщения
Вы не можете голосовать в опросах
Вы не можете прикреплять файлы к сообщениям
Вы не можете скачивать файлы