Ошибка

До окончания фрилича осталось:


Сын Бэтмена / Son of Batman (Этан Сполдинг) [2014, мультфильм, фэнтези, боевик, драма, криминал, детектив, приключения, семейный, BDRip 720p]

Ответить на тему
 
Автор Сообщение

BZzz

Пол: Пол:Муж

Стаж: 5 лет 1 месяц

Сообщений: 3647

Россия
Рейтинг

post 27-Апр-2014 18:21 0[+]

[Цитировать] 

Сын Бэтмена / Son of Batman




Год выпуска: 2014
Страна: США
Жанр: мультфильм, фэнтези, боевик, драма, криминал, детектив, приключения, семейный
Продолжительность: 01:14:09
Перевод 1: Любительский (многоголосый закадровый)[SkyeFilmTV]
Перевод 2: Любительский (многоголосый закадровый)[DuBDraG ProJECT]

Режиссер: Этан Сполдинг

В ролях: Джейсон О’Мара (Jason O'Mara), Томас Гибсон (Thomas Gibson), Морена Баккарин (Morena Baccarin), Джанкарло Эспозито (Giancarlo Esposito), Дэвид МакКаллум (David McCallum), Ксандер Беркли (Xander Berkeley), Шон Маэр (Sean Maher), Фред Татаскьор (Fred Tatasciore)

Описание: Бэтмен узнает от Талии аль Гул, что у него есть сын, которого зовут Дэмиен. Мальчишка, воспитанный Лигой Убийц, вырос задиристым, надменным и озлобленным. Несмотря на свой юный возраст Дэмиен обладает всеми супергеройскими качествами отца и не намерен жить обычной жизнь. Он мечтает поквитаться с врагами и прежде всего с убийцей его дедушки. Его рвение настолько велико, что по отношению к преступникам паренек принимает довольно жесткие меры. Со временем Дэмиен превращается в нового Робина, одним из самых лучших Робинов всех времен.

Рейтинг MPAA:



Качество: BDRip 720p
Формат: MKV
Видео кодек: AVC
Аудио кодек: AC3
Видео: 1280x720 (16:9), 23.976 fps, High@L4.1, 3 622 Kbps
Аудио #1: AC3, 384 Kbps, 48.0 KHz, 6 ch [SkyeFilmTV]
Аудио #2: AC3, 192 Kbps, 48.0 KHz, 2 ch [DuBDraG ProJECT]
Аудио #3: DTS, 1 510 Kbps, 48.0 KHz, 6 ch [Original Eng]
General
Complete name : Son.Of.Batman.2014.L.BDRip.720p.mkv
Format : Matroska
File size : 2.96 GiB
Duration : 1h 14mn
Overall bit rate : 5 711 Kbps
Encoded date : UTC 2010-02-22 21:41:31
Writing application : mkvmerge v5.8.0 ('No Sleep / Pillow') built on Nov 13 2012 19:43:22
Writing library : libebml v1.3.0 + libmatroska v1.4.0

Video
ID : 1
Format : AVC
Format/Info : Advanced Video Codec
Format profile : High@L4.1
Format settings, CABAC : Yes
Format settings, ReFrames : 8 frames
Muxing mode : Container profile=Unknown@4.1
Codec ID : V_MPEG4/ISO/AVC
Duration : 1h 14mn
Bit rate : 3 622 Kbps
Width : 1 280 pixels
Height : 720 pixels
Display aspect ratio : 16:9
Frame rate : 23.976 fps
Color space : YUV
Chroma subsampling : 4:2:0
Bit depth : 8 bits
Scan type : Progressive
Bits/(Pixel*Frame) : 0.164
Stream size : 1.82 GiB (61%)
Writing library : x264 core 138 r2356 a1d3d17
Encoding settings : cabac=1 / ref=8 / deblock=1:-3:-3 / analyse=0x3:0x113 / me=umh / subme=10 / psy=1 / psy_rd=1.00:0.05 / mixed_ref=1 / me_range=32 / chroma_me=1 / trellis=2 / 8x8dct=1 / cqm=0 / deadzone=21,11 / fast_pskip=0 / chroma_qp_offset=-2 / threads=18 / lookahead_threads=1 / sliced_threads=0 / nr=0 / decimate=1 / interlaced=0 / bluray_compat=0 / constrained_intra=0 / bframes=4 / b_pyramid=2 / b_adapt=2 / b_bias=0 / direct=3 / weightb=1 / open_gop=0 / weightp=2 / keyint=250 / keyint_min=23 / scenecut=40 / intra_refresh=0 / rc=2pass / mbtree=0 / bitrate=3622 / ratetol=1.0 / qcomp=0.70 / qpmin=0 / qpmax=69 / qpstep=4 / cplxblur=20.0 / qblur=0.5 / ip_ratio=1.40 / pb_ratio=1.30 / aq=2:1.00

Audio #1
ID : 2
Format : AC-3
Format/Info : Audio Coding 3
Mode extension : CM (complete main)
Codec ID : A_AC3
Duration : 1h 14mn
Bit rate mode : Constant
Bit rate : 384 Kbps
Channel(s) : 6 channels
Channel positions : Front: L C R, Side: L R, LFE
Sampling rate : 48.0 KHz
Bit depth : 16 bits
Stream size : 204 MiB (7%)
Title : SkyeFilmTV
Language : Russian

Audio #2
ID : 3
Format : AC-3
Format/Info : Audio Coding 3
Mode extension : CM (complete main)
Codec ID : A_AC3
Duration : 1h 14mn
Bit rate mode : Constant
Bit rate : 192 Kbps
Channel(s) : 2 channels
Channel positions : Front: L R
Sampling rate : 48.0 KHz
Bit depth : 16 bits
Stream size : 102 MiB (3%)
Title : DuBDraG ProJECT
Language : Russian

Audio #3
ID : 4
Format : DTS
Format/Info : Digital Theater Systems
Codec ID : A_DTS
Duration : 1h 14mn
Bit rate mode : Constant
Bit rate : 1 510 Kbps
Channel(s) : 6 channels
Channel positions : Front: L C R, Side: L R, LFE
Sampling rate : 48.0 KHz
Bit depth : 24 bits
Stream size : 801 MiB (26%)
info [Профиль]  [ЛС] 

Aberfort

Пол: Пол:Муж

Стаж: 4 года 1 месяц

Сообщений: 96

Рейтинг

post 27-Апр-2014 19:45 (спустя 1 час 24 минуты) [-]0[+]

[Цитировать] 

как сабж?
info [Профиль]  [ЛС] 

Slipknotnik

Пол: Пол:Муж

Стаж: 7 лет 1 месяц

Сообщений: 81

Россия
Рейтинг

post 27-Апр-2014 19:47 (спустя 1 минута) [-]0[+]

[Цитировать] 

А сабы тут есть?
info [Профиль]  [ЛС] 

Ashot302

Пол: Пол:Муж

Стаж: 7 лет 8 месяцев

Сообщений: 811

Предупреждений: 1

Россия
Рейтинг

post 27-Апр-2014 19:48 (спустя 59 секунд) [-]1[+]

[Цитировать] 

Цитата:

Со временем Дэмиен превращается в нового Робина, одним из самых лучших Робинов всех времен.
Со временем Дэмиен превращается в нового Робина, одноГО из самых лучших Робинов всех времен.
info [Профиль]  [ЛС] 

mrCrAzY

Пол: Пол:Муж

Стаж: 5 лет 5 месяцев

Сообщений: 341

Предупреждений: 1

Украина
Рейтинг

post 27-Апр-2014 20:22 (спустя 34 минуты) [-]0[+]

[Цитировать] 

1080 будет ?
info [Профиль]  [ЛС] 

CAKPAC

Пол: Пол:Муж

Стаж: 7 лет 7 месяцев

Сообщений: 513

Предупреждений: 3

Россия
Рейтинг

post 27-Апр-2014 20:35 (спустя 13 минут) [-]0[+]

[Цитировать] 

мать то кто , женщина кошка ?)))

_________________
XBOX360*PS4*WiiU*Wii*XBOX*PS2*Dreamcast
info [Профиль]  [ЛС] 

vondoom

Пол: Пол:Муж

Стаж: 6 лет 8 месяцев

Сообщений: 46

Рейтинг

post 27-Апр-2014 20:41 (спустя 5 минут) [-]7[+]

[Цитировать] 

CAKPAC писал(а):

мать то кто , женщина кошка ?)))

Цитата:

Бэтмен узнает от Талии аль Гул, что у него есть сын, которого зовут Дэмиен.

Цитата:

Мальчишка, воспитанный Лигой Убийц, вырос задиристым, надменным и озлобленным.
Однозначно женщина-кошка Улыбаюсь
info [Профиль]  [ЛС] 

SonicPaul

Пол: Пол:Муж

Стаж: 6 лет 9 месяцев

Сообщений: 165

Япония
Рейтинг

post 27-Апр-2014 20:51 (спустя 9 минут) [-]5[+]

[Цитировать] 

1й скрин Аватар легенда о Бетмене ?
info [Профиль]  [ЛС] 

Deathcore

Пол: Пол:Муж

Стаж: 5 лет 4 месяца

Сообщений: 73

Украина
Рейтинг

post 27-Апр-2014 20:58 (спустя 7 минут) [-]0[+]

[Цитировать] 

SonicPaul писал(а):

1й скрин Аватар легенда о Бетмене ?
охохо,ахаха.нет

_________________
info [Профиль]  [ЛС] 

xGraMMeRx

Пол: Пол:Муж

Стаж: 6 лет 9 месяцев

Сообщений: 225

Россия
Рейтинг

post 27-Апр-2014 21:31 (спустя 32 минуты) [-]2[+]

[Цитировать] 

Я когда то давно смотрел мульт лигу справедливости (самую первую вроде), вот там был один эпизод (почти перед окончанием мульта насколько я помню) где как бы показывают старого бэтмэна и его "сына" там говорилось что он не биологический сын вроде. Мульти-вселенная это конечно хорошо но блин, я в них совсем не ориентируюсь Грущу
info [Профиль]  [ЛС] 

Johny153

Пол: Пол:Муж

Стаж: 6 лет 9 месяцев

Сообщений: 6

Россия
Рейтинг

post 27-Апр-2014 23:53 (спустя 2 часа 21 минута) [-]13[+]

[Цитировать] 

xGraMMeRx писал(а):

Я когда то давно смотрел мульт лигу справедливости (самую первую вроде), вот там был один эпизод (почти перед окончанием мульта насколько я помню) где как бы показывают старого бэтмэна и его "сына" там говорилось что он не биологический сын вроде. Мульти-вселенная это конечно хорошо но блин, я в них совсем не ориентируюсь Грущу
То был кроссовер Лини Справедливости и Batman Beyond, а Терри МакГиннис - Бетмен будущего - как раз таки и был биологическим сыном Брюса. Но Брюс этого не знал, потому что представители спецслужб, получив его ДНК, подобрали семейную пару, сходную по взглядам с Томасом и Мартой Уэйнами, и изменили генокод Уорена МакГинниса, отца Терри. Это был первый шаг в получении нового Бэтмена.
PS Простите задрота Подмигиваю
info [Профиль]  [ЛС] 

razban666

Стаж: 6 лет 2 месяца

Сообщений: 25

Рейтинг

post 28-Апр-2014 09:43 (спустя 9 часов) [-]0[+]

[Цитировать] 

Цитата:

Со временем Дэмиен превращается в нового Робина
А со старым что стало?
info [Профиль]  [ЛС] 

booone

Пол: Пол:Муж

Стаж: 6 лет 9 месяцев

Сообщений: 29

Гваделупа
Рейтинг

post 28-Апр-2014 13:36 (спустя 3 часа) [-]0[+]

[Цитировать] 

razban666 писал(а):

Цитата:

Со временем Дэмиен превращается в нового Робина
А со старым что стало?
он его убил вроде..ну в Injustice так говорили..хотя там параллельная вселенная была..
info [Профиль]  [ЛС] 

Draginor

Пол: Пол:Муж

Стаж: 6 лет 8 месяцев

Сообщений: 22

Ямайка
Рейтинг

post 28-Апр-2014 16:36 (спустя 3 часа) [-]1[+]

[Цитировать] 

мульт не понравился, нарисован как-то не так, ИМХО
info [Профиль]  [ЛС] 

SGAIL

Стаж: 3 года 4 месяца

Сообщений: 80

Россия
Рейтинг

post 28-Апр-2014 18:22 (спустя 1 час 46 минут) [-]0[+]

[Цитировать] 

razban666 писал(а):

Цитата:

Со временем Дэмиен превращается в нового Робина
А со старым что стало?
Он вырос и стал Найтвингом...

PS Мультфильм отличный...
info [Профиль]  [ЛС] 

Дэйта

Стаж: 3 года 8 месяцев

Сообщений: 8

Рейтинг

post 29-Апр-2014 04:19 (спустя 9 часов) [-]0[+]

[Цитировать] 

vondoom
Так это правда что Талия на самом деле женщина-кошка, а Рась-Аль-Гул на самом деле Дикий Кот?
info [Профиль]  [ЛС] 

post 14-Сен-2014 10:37 (спустя 4 месяца 15 дней) [-]0[+]

Топик был перенесен из форума Новинки 2013-2014 (DVD, HD DVD, Blu-ray, HD Rips, Web-DL) в форум Мультфильмы (HD Video)

L
 
Показать сообщения:    
Ответить на тему

Текущее время: 10-Дек 14:54

Часовой пояс: GMT + 4



Вы не можете начинать темы
Вы не можете отвечать на сообщения
Вы не можете редактировать свои сообщения
Вы не можете удалять свои сообщения
Вы не можете голосовать в опросах
Вы не можете прикреплять файлы к сообщениям
Вы не можете скачивать файлы