Ошибка

Реальная белка / The Nut Job (Питер Лепениотис) [2013, мультфильм, комедия, приключения, семейный , BDRip 1080p]

Ответить на тему
 
Автор Сообщение

koss555

Пол: Пол:Муж

Стаж: 4 года 11 месяцев

Сообщений: 1549

Россия
Рейтинг

post 24-Апр-2014 19:58 1[+]

[Цитировать] 

Реальная белка / The Nut Job
«Береги свои орешки!»

Год выпуска: 2013
Страна: Канада , Корея Южная , США
Жанр: мультфильм, комедия, приключения, семейный
Продолжительность: 01:25:54
Перевод 1: Профессиональный (многоголосый) [Baibako]
Перевод 2: Профессиональный (дублированный)[чистый звук]

Режиссер: Питер Лепениотис
Сценарий: Лорн Кэмерон, Питер Лепениотис, Дэниэл Ву
Продюсер: Чжон У Кён, Грэхэм Молой, Хонгджу Ан
Композитор: Майкл Джаккино, Пол Интсон
Художник: Йен Хатингс
Монтаж: Пол Хантер

В ролях: Уилл Арнетт / Will Arnett (Surly, озвучка), Брендан Фрейзер / Brendan Fraser (Grayson, озвучка), Лиам Нисон / Liam Neeson (Raccoon, озвучка), Кэтрин Хайгл / Katherine Heigl (Andie, озвучка), Стивен Лэнг / Stephen Lang (King, озвучка), Майя Рудольф / Maya Rudolph (Precious, озвучка), Джефф Данэм / Jeff Dunham (Mole, озвучка), Гэбриел Иглесиас / Gabriel Iglesias (Jimmy, озвучка)


Описание: Пытаясь выжить в городе, неразлучные друзья — белка Злюк и крысёнок Бадди натыкаются на магазин, до краёв набитый их любимым лакомством — орехами. Чувствуя, что «мечты сбываются», приятели планируют величайшее ограбление в истории грызунов. Но тут совсем некстати нарисовались бедные родственники из парка — прямо 13 друзей арахиса! Однако им всем невдомёк, что магазин орехов — лишь прикрытие для банды грабителей, которые намерены вырыть туннель под банк и подменить мешки с деньгами на мешки с теми самыми орехами.

Бюджет: $42 000 00
Сборы в США: $63 846 521
Сборы в мире: + $5 307 978 = $69 154 499 сборы
Сборы в России: $1 914 771
Зрители: Корея Южная 477.5 тыс. , Россия 313.5 тыс. , Венгрия 97.3 тыс.
Премьера (мир): 11 января 2014
Премьера (РФ): 17 апреля 2014, «Двадцатый Век Фокс СНГ», «Каравелла DDC» 3D
Рейтинг MPAA: Рекомендуется присутствие родителей



Качество: BDRip 1080p
Формат: MKV
Видео кодек: AVC
Аудио кодеk: AC3
Видео: 1920x1040 (16:9), 23.976 fps, AVC, 5 769 Kbps
Аудио: Аудио #1: AC3, 448 Kbps, 48.0 KHz, 6 ch [Baibako]
Аудио #2: AC3, 192 Kbps, 48.0 KHz, 2 ch Профессиональный (дублированный)[чистый звук]
Аудио #3: DTS, 1 510 Kbps, 48.0 KHz, 6 ch English
General
Complete name : Rea1na9.Be1ka.2014.D.P.BDRip.1080p.mkv
Format : Matroska
File size : 4.75 GiB
Duration : 1h 25mn
Overall bit rate : 7 919 Kbps
Encoded date : UTC 2014-04-24 15:39:04
Writing application : mkvmerge v6.8.0 ('Theme for Great Cities') 64bit built on Mar 2 2014 21:34:26
Writing library : libebml v1.3.0 + libmatroska v1.4.1

Video
ID : 1
Format : AVC
Format/Info : Advanced Video Codec
Format profile : High@L4.1
Format settings, CABAC : Yes
Format settings, ReFrames : 4 frames
Muxing mode : Container profile=Unknown@4.1
Codec ID : V_MPEG4/ISO/AVC
Duration : 1h 25mn
Bit rate : 5 769 Kbps
Width : 1 920 pixels
Height : 1 040 pixels
Display aspect ratio : 16:9
Frame rate : 23.976 fps
Color space : YUV
Chroma subsampling : 4:2:0
Bit depth : 8 bits
Scan type : Progressive
Bits/(Pixel*Frame) : 0.121
Stream size : 3.37 GiB (71%)
Writing library : x264 core 140 r2377 1ca7bb9
Encoding settings : cabac=1 / ref=4 / deblock=1:0:0 / analyse=0x3:0x133 / me=umh / subme=7 / psy=1 / psy_rd=1.00:0.00 / mixed_ref=1 / me_range=16 / chroma_me=1 / trellis=1 / 8x8dct=1 / cqm=0 / deadzone=21,11 / fast_pskip=0 / chroma_qp_offset=-2 / threads=12 / lookahead_threads=2 / sliced_threads=0 / nr=0 / decimate=1 / interlaced=0 / bluray_compat=0 / constrained_intra=0 / bframes=3 / b_pyramid=2 / b_adapt=1 / b_bias=0 / direct=1 / weightb=1 / open_gop=0 / weightp=2 / keyint=250 / keyint_min=23 / scenecut=40 / intra_refresh=0 / rc_lookahead=40 / rc=2pass / mbtree=1 / bitrate=5769 / ratetol=1.0 / qcomp=0.60 / qpmin=0 / qpmax=69 / qpstep=4 / cplxblur=20.0 / qblur=0.5 / ip_ratio=1.40 / aq=1:1.00

Audio #1
ID : 2
Format : AC-3
Format/Info : Audio Coding 3
Mode extension : CM (complete main)
Codec ID : A_AC3
Duration : 1h 25mn
Bit rate mode : Constant
Bit rate : 448 Kbps
Channel(s) : 6 channels
Channel positions : Front: L C R, Side: L R, LFE
Sampling rate : 48.0 KHz
Bit depth : 16 bits
Stream size : 275 MiB (6%)
Language : Russian

Audio #2
ID : 3
Format : AC-3
Format/Info : Audio Coding 3
Mode extension : CM (complete main)
Codec ID : A_AC3
Duration : 1h 25mn
Bit rate mode : Constant
Bit rate : 192 Kbps
Channel(s) : 2 channels
Channel positions : Front: L R
Sampling rate : 48.0 KHz
Bit depth : 16 bits
Stream size : 118 MiB (2%)
Language : Russian

Audio #3
ID : 4
Format : DTS
Format/Info : Digital Theater Systems
Codec ID : A_DTS
Duration : 1h 25mn
Bit rate mode : Constant
Bit rate : 1 510 Kbps
Channel(s) : 6 channels
Channel positions : Front: L C R, Side: L R, LFE
Sampling rate : 48.0 KHz
Bit depth : 24 bits
Stream size : 928 MiB (19%)

Menu
00:00:00.000 : en:00:00:00.000
00:02:35.614 : en:00:02:35.614
00:05:24.574 : en:00:05:24.574
00:09:57.430 : en:00:09:57.430
00:14:58.481 : en:00:14:58.481
00:17:30.091 : en:00:17:30.091
00:22:18.837 : en:00:22:18.837
00:27:58.677 : en:00:27:58.677
00:32:01.169 : en:00:32:01.169
00:37:50.435 : en:00:37:50.435
00:40:19.042 : en:00:40:19.042
00:44:56.611 : en:00:44:56.611
00:48:14.266 : en:00:48:14.266
00:53:17.528 : en:00:53:17.528
00:58:14.991 : en:00:58:14.991
01:03:04.072 : en:01:03:04.072
01:08:48.624 : en:01:08:48.624
01:13:57.183 : en:01:13:57.183
01:19:32.059 : en:01:19:32.059
01:23:11.737 : en:01:23:11.737
info [Профиль]  [ЛС] 

post 24-Апр-2014 19:59 (спустя 50 секунд) [-]0[+]

Топик был перенесен из форума Оформление раздач (Кинематограф) в форум DVD, HD DVD, Blu-ray, HD Rips, Web-DL

koss555
 

ilia krit

Стаж: 7 лет 2 месяца

Сообщений: 63

Рейтинг

post 27-Апр-2014 22:47 (спустя 3 дня) [-]1[+]

[Цитировать] 

Давно такого отвратного мультика не видел. Не рекомендую детям показывать. Мораль на нуле. Юмор вообще отсутствует.(или по принципу чем сильнее ударить белку тем смешней)
info [Профиль]  [ЛС] 

post 25-Июн-2014 10:37 (спустя 1 месяц 27 дней) [-]0[+]

Топик был перенесен из форума DVD, HD DVD, Blu-ray, HD Rips, Web-DL в форум Зарубежное кино | HD Rips

L
 

post 25-Июн-2014 10:45 (спустя 1 месяц 27 дней) [-]0[+]

Топик был перенесен из форума Зарубежное кино | HD Rips в форум Мультфильмы (HD Video)

L
 
Показать сообщения:    
Ответить на тему

Текущее время: 05-Дек 00:20

Часовой пояс: GMT + 4



Вы не можете начинать темы
Вы не можете отвечать на сообщения
Вы не можете редактировать свои сообщения
Вы не можете удалять свои сообщения
Вы не можете голосовать в опросах
Вы не можете прикреплять файлы к сообщениям
Вы не можете скачивать файлы