Ошибка

Тайная Вселенная. Путешествие внутрь клетки / Secret Universe: The Hidden Life of the Cell (Майкл Дэвис / Michael Davis) [2012 г., документальный, научно-познавательный, SATRip]

Ответить на тему
 
Автор Сообщение

markfiter

Пол: Пол:Муж

Стаж: 4 года 11 месяцев

Сообщений: 2729

Германия
Рейтинг

post 13-Апр-2014 21:19 0[+]

[Цитировать] 

Тайная Вселенная. Путешествие внутрь клетки / Secret Universe: The Hidden Life of the Cell

Год выпуска: 2012
Страна: Великобритания
Жанр: документальный, научно-познавательный
Продолжительность: 00:49:05
Перевод: Профессиональный (полное дублирование)

Режиссер: Майкл Дэвис / Michael Davis

Описание: Клетки - фундаментальные единицы жизни, из них состоят наш мозг, мышцы, органы - все части нашего организма. Сегодня ученым удалось то, что всегда казалось невозможным - заглянуть внутрь человеческой клетки. Они смогли увидеть части клеток и то, как они взаимодействуют между собой. Но этот прекрасный внутренний микромир является ареной постоянной борьбы. Эта война началась миллионы лет назад и происходит в теле каждого из нас каждый день, каждую минуту. Кто победит в этой войне: наш организм или вирусы?

Качество: SATRip
Формат: AVI
Видео кодек: XviD
Аудио кодек: AC3
Видео: 720x400 (1.80:1), 25 fps, XviD build 50 ~1749 kbps avg, 0.24 bit/pixel
Аудио: 48 kHz, AC3 Dolby Digital, 2/0 (L,R) ch, ~192 kbps
General
Format : AVI
Format/Info : Audio Video Interleave
File size : 685 MiB
Duration : 49mn 5s
Overall bit rate : 1 951 Kbps
Movie name : BBC. Secret Universe: The Hidden Life of the Cell
Director : SATRip by Thunder
Writing application : VirtualDubMod 1.5.10.3 | www.virtualdub-fr.org || (build 2550/release)
Original source form/Name : Documentary

Video
ID : 0
Format : MPEG-4 Visual
Format profile : Advanced Simple@L5
Format settings, BVOP : 2
Format settings, QPel : No
Format settings, GMC : No warppoints
Format settings, Matrix : Default (H.263)
Codec ID : XVID
Codec ID/Hint : XviD
Duration : 49mn 5s
Bit rate : 1 750 Kbps
Width : 720 pixels
Height : 400 pixels
Display aspect ratio : 16:9
Frame rate : 25.000 fps
Color space : YUV
Chroma subsampling : 4:2:0
Bit depth : 8 bits
Scan type : Progressive
Compression mode : Lossy
Bits/(Pixel*Frame) : 0.243
Stream size : 614 MiB (90%)
Writing library : XviD 1.2.1 (UTC 2008-12-04)

Audio
ID : 1
Format : AC-3
Format/Info : Audio Coding 3
Mode extension : CM (complete main)
Format settings, Endianness : Big
Codec ID : 2000
Duration : 49mn 5s
Bit rate mode : Constant
Bit rate : 192 Kbps
Channel count : 2 channels
Channel positions : Front: L R
Sampling rate : 48.0 KHz
Bit depth : 16 bits
Compression mode : Lossy
Stream size : 67.4 MiB (10%)
Alignment : Split accross interleaves
Interleave, duration : 40 ms (1.00 video frame)
Interleave, preload duration : 500 ms
info [Профиль]  [ЛС] 
Показать сообщения:    
Ответить на тему

Текущее время: 08-Дек 12:02

Часовой пояс: GMT + 4



Вы не можете начинать темы
Вы не можете отвечать на сообщения
Вы не можете редактировать свои сообщения
Вы не можете удалять свои сообщения
Вы не можете голосовать в опросах
Вы не можете прикреплять файлы к сообщениям
Вы не можете скачивать файлы