Ошибка

BBC: Точность и погрешность измерений / Precision: The Measure of All Things (Серии: 1-3 из 3) (Маркус дю Сутуа / Marcus du Sautoy) [2013 г., документальный, IPTVRip]

Ответить на тему
 
Автор Сообщение

markfiter

Пол: Пол:Муж

Стаж: 4 года 11 месяцев

Сообщений: 2722

Германия
Рейтинг

post 13-Апр-2014 18:17 0[+]

[Цитировать] 

BBC: Точность и погрешность измерений / Precision: The Measure of All Things

Год выпуска: 2013
Страна: Великобритания
Жанр: документальный
Продолжительность: 3 х ~00:58:30
Перевод: Профессиональный (полное дублирование)

Режиссер: Маркус дю Сутуа / Marcus du Sautoy

Описание: Вместе с профессором Маркусом дю Сутуа мы отправимся в удивительное путешествие в мир измерений. Он попытается узнать, почему мы постоянно хотим измерить и определить количество всего, что окружает нас. Мы узнаем, как были определены такие понятия как метр, секунда и величина веса, а также как мы научились измерять высокие температуры, свет и электричество.

Качество: IPTVRip
Формат: AVI
Видео кодек: DivX
Аудио кодек: MPEG Audio
Видео: 720x400 (1.80:1), 25 fps, DivX, ~ 1353 kbps avg, 0.19 bit/pixel
Аудио: 48 kHz, Microsoft MPEG, 2 ch, ~192 kbps avg
General
Format : AVI
Format/Info : Audio Video Interleave
File size : 628 MiB
Duration : 58mn 59s
Overall bit rate : 1 488 Kbps
Writing application : VirtualDubModRus 1.5.10.2 (build 2542/release)
Writing library : VirtualDubMod build 2542/release

Video
ID : 0
Format : MPEG-4 Visual
Format profile : Advanced Simple@L5
Format settings, BVOP : 2
Format settings, QPel : No
Format settings, GMC : No warppoints
Format settings, Matrix : Default (MPEG)
Codec ID : DX50
Codec ID/Hint : DivX 5
Duration : 58mn 59s
Bit rate : 1 350 Kbps
Width : 720 pixels
Height : 400 pixels
Display aspect ratio : 16:9
Frame rate : 25.000 fps
Color space : YUV
Chroma subsampling : 4:2:0
Bit depth : 8 bits
Scan type : Progressive
Compression mode : Lossy
Bits/(Pixel*Frame) : 0.187
Stream size : 570 MiB (91%)
Writing library : XviD 73

Audio
ID : 1
Format : MPEG Audio
Format version : Version 1
Format profile : Layer 3
Codec ID : 55
Codec ID/Hint : MP3
Duration : 58mn 59s
Bit rate mode : Constant
Bit rate : 128 Kbps
Channel count : 2 channels
Sampling rate : 44.1 KHz
Compression mode : Lossy
Delay relative to video : 500ms
Stream size : 54.0 MiB (9%)
Alignment : Split accross interleaves
Interleave, duration : 40 ms (1.00 video frame)
Interleave, preload duration : 500 ms
1. Время и расстояние. Метр. Часы / Time and Distance.
2. Масса и моль / Mass and Moles.
3. Электричество, свет и тепло / Light, Heat and Electricity.
info [Профиль]  [ЛС] 

Fhntv95

Пол: Пол:Муж

Стаж: 4 года 11 месяцев

Сообщений: 14

Казахстан
Рейтинг

post 13-Апр-2014 20:50 (спустя 2 часа 33 минуты) [-]0[+]

[Цитировать] 

спасибо, а будет более лучшее качество? или есть уже где нибудь.
info [Профиль]  [ЛС] 
Показать сообщения:    
Ответить на тему

Текущее время: 03-Дек 21:45

Часовой пояс: GMT + 4



Вы не можете начинать темы
Вы не можете отвечать на сообщения
Вы не можете редактировать свои сообщения
Вы не можете удалять свои сообщения
Вы не можете голосовать в опросах
Вы не можете прикреплять файлы к сообщениям
Вы не можете скачивать файлы