Ошибка

Трудно быть богом (Петер Фляйшман) [1989, Драма, фантастика, DVDRip-AVC]

Ответить на тему
 
Автор Сообщение

CooL

Пол: Пол:Муж

Стаж: 6 лет 9 месяцев

Сообщений: 1235

СССР
Рейтинг

post 13-Апр-2014 18:06 4[+]

[Цитировать] 

Трудно быть богом

Название: Трудно быть богом

Год выпуска: 1989
Жанр: Драма, фантастика
Продолжительность: 02:07:56
Страна: СССР, Германия, Франция, Швейцария
Режиссер: Петер Фляйшман

В ролях:Эдвард Жентара, Александр Филиппенко, Анн Готье, Кристина Кауфманн, Андрей Болтнев, Пьер Клементи, Михаил Глузский, Элгуджа Бурдули, Биргит Долл, Вернер Херцог, Регимантас Адомайтис, Вернер Хесс, Лев Перфилов, Арнис Лицитис
Описание: Ученый с Земли заброшен на планету, живущую по средневековым законам. Цель его миссии - быть сторонним наблюдателем и записывать получаемую информацию. Но, видя кругом чудовищную несправедливость, он решает взять в руки меч и вступить в бой…


Сэмпл
Автор рипа: imgeorgest
Качество: DVDRip-AVC
Формат: MKV
Видео кодек: x264
Аудио кодек: AC3
Видео: 652@780x480, Display aspect ratio 1.625:1, 25.000 fps, 2246 Kbps
Аудио 1 : 48 kHz, AC3 Dolby Digital, 2/0 (L,R) ch, ~192 kbps
Формат : Matroska
Версия формата : Version 2
Размер файла : 2,18 Гбайт
Продолжительность : 2 ч. 7 м.
Общий поток : 2439 Кбит/сек
Название фильма : «Трудно быть Богом»
Дата кодирования : UTC 2014-03-21 16:37:19
Программа кодирования : mkvmerge v5.8.0 ('No Sleep / Pillow') built on Sep 2 2012 15:37:04
Библиотека кодирования : libebml v1.2.3 + libmatroska v1.3.0
Примечание : DVDRip-AVC
Original date released : March 20th 2014
Encoded by : imgeorgest®

Видео
Идентификатор : 1
Формат : AVC
Формат/Информация : Advanced Video Codec
Профиль формата : High@L4.1
Параметр CABAC формата : Да
Параметр ReFrames формата : 16 кадров
Идентификатор кодека : V_MPEG4/ISO/AVC
Продолжительность : 2 ч. 7 м.
Битрейт : 2246 Кбит/сек
Ширина : 652 пикселя
Высота : 480 пикселей
Соотношение сторон : 16:10
Соотношение сторон в оригинале : 16:10
Режим частоты кадров : Постоянный
Частота кадров : 25,000 кадров/сек
Цветовое пространство : YUV
Субдискретизация насыщенности : 4:2:0
Битовая глубина : 8 бит
Тип развёртки : Прогрессивная
Бит/(Пиксели*Кадры) : 0.287
Размер потока : 1,96 Гбайт (90%)
Заголовок : Трудно быть Богом.1989
Библиотека кодирования : x264 core 130 r2273 b3065e6
Настройки программы : cabac=1 / ref=16 / deblock=1:-3:-2 / analyse=0x3:0x133 / me=umh / subme=11 / psy=1 / psy_rd=1.00:0.10 / mixed_ref=1 / me_range=32 / chroma_me=1 / trellis=2 / 8x8dct=1 / cqm=0 / deadzone=21,11 / fast_pskip=0 / chroma_qp_offset=-3 / threads=12 / lookahead_threads=3 / sliced_threads=0 / nr=0 / decimate=0 / interlaced=0 / bluray_compat=0 / constrained_intra=0 / bframes=13 / b_pyramid=2 / b_adapt=2 / b_bias=0 / direct=3 / weightb=1 / open_gop=0 / weightp=2 / keyint=250 / keyint_min=25 / scenecut=40 / intra_refresh=0 / rc_lookahead=60 / rc=2pass / mbtree=1 / bitrate=2246 / ratetol=1.0 / qcomp=0.70 / qpmin=0 / qpmax=32 / qpstep=4 / cplxblur=20.0 / qblur=0.5 / vbv_maxrate=50000 / vbv_bufsize=62500 / nal_hrd=none / ip_ratio=1.25 / aq=1:1.00
Язык : Russian
Default : Да
Forced : Нет
Основные цвета : BT.601 PAL
Характеристики трансфера : BT.470 System B, BT.470 System G
Коэффициенты матрицы : BT.601

Аудио
Идентификатор : 2
Формат : AC-3
Формат/Информация : Audio Coding 3
Расширение режима : CM (complete main)
Параметр Endianness формата : Big
Идентификатор кодека : A_AC3
Продолжительность : 2 ч. 7 м.
Вид битрейта : Постоянный
Битрейт : 192 Кбит/сек
Каналы : 2 канала
Расположение каналов : Front: L R
Частота : 48,0 КГц
Битовая глубина : 16 бит
Метод сжатия : С потерями
Размер потока : 176 Мбайт (8%)
Заголовок : Оригинал: AC-3; 16 bit 48 Khz; 2.0 ch 192 Kbps; CBR
Язык : Russian
Default : Да
Forced : Нет
info [Профиль]  [ЛС] 

Zigfrid_n

Пол: Пол:Муж

Стаж: 4 года 6 месяцев

Сообщений: 293

Предупреждений: 1

СССР
Рейтинг

post 13-Апр-2014 20:27 (спустя 2 часа 21 минута) [-]0[+]

[Цитировать] 

Добавьте ссылку на кинопоиск: http://www.kinopoisk.ru/film/42000/
info [Профиль]  [ЛС] 

freezed_sky

Стаж: 1 год 1 месяц

Сообщений: 1

Рейтинг

post 04-Фев-2016 15:36 (спустя 1 год 9 месяцев) [-]0[+]

[Цитировать] 

народ, дайте скорости!!
info [Профиль]  [ЛС] 
Показать сообщения:    
Ответить на тему

Текущее время: 07-Дек 14:43

Часовой пояс: GMT + 4



Вы не можете начинать темы
Вы не можете отвечать на сообщения
Вы не можете редактировать свои сообщения
Вы не можете удалять свои сообщения
Вы не можете голосовать в опросах
Вы не можете прикреплять файлы к сообщениям
Вы не можете скачивать файлы