Ошибка

Твое тело. 10 секретов сна / Your body. 10 secrets of sleep (BBC) [2009 г., документальный, SATRip]

Ответить на тему
 
Автор Сообщение

markfiter

Пол: Пол:Муж

Стаж: 4 года 11 месяцев

Сообщений: 2729

Германия
Рейтинг

post 13-Апр-2014 16:26 3[+]

[Цитировать] 

Твое тело. 10 секретов сна / Your body. 10 secrets of sleep

Год выпуска: 2009
Страна: Великобритания
Жанр: документальный
Продолжительность: 00:49:51
Перевод: Профессиональный (одноголосый)

Режиссер: BBC

Описание: Достаточно ли вы спите, и как выглядеть хорошо после недосыпания? Как бороться с бессонницей? Что такое сны, и как ими управлять? Что делать с храпом возлюбленного? С помощью впечатляющих визуальных технологий и новейших научных исследований можно отправиться в фантастическое путешествие по внутреннему миру человеческого тела.

Качество: SATRip
Формат: AVI
Видео кодек: XviD
Аудио кодек: MP3
Видео: 704x400 (1.76:1), 25 fps, XviD MPEG-4 ~1500 kbps avg, 0.21 bit/pixel
Аудио: 48 kHz, 2 ch, ~128 kbps avg
General
Format : AVI
Format/Info : Audio Video Interleave
File size : 582 MiB
Duration : 49mn 51s
Overall bit rate : 1 633 Kbps
Writing library : TMPGEnc 4.0 XPress Version. 4.7.7.307

Video
ID : 0
Format : MPEG-4 Visual
Format profile : Advanced Simple@L5
Format settings, BVOP : 2
Format settings, QPel : No
Format settings, GMC : No warppoints
Format settings, Matrix : Default (H.263)
Muxing mode : Packed bitstream
Codec ID : XVID
Codec ID/Hint : XviD
Duration : 49mn 51s
Bit rate : 1 498 Kbps
Width : 704 pixels
Height : 400 pixels
Display aspect ratio : 16:9
Frame rate : 25.000 fps
Color space : YUV
Chroma subsampling : 4:2:0
Bit depth : 8 bits
Scan type : Progressive
Compression mode : Lossy
Bits/(Pixel*Frame) : 0.213
Stream size : 534 MiB (92%)
Writing library : XviD 64

Audio
ID : 1
Format : MPEG Audio
Format version : Version 1
Format profile : Layer 3
Mode : Joint stereo
Mode extension : MS Stereo
Codec ID : 55
Codec ID/Hint : MP3
Duration : 49mn 51s
Bit rate mode : Constant
Bit rate : 128 Kbps
Channel count : 2 channels
Sampling rate : 48.0 KHz
Compression mode : Lossy
Stream size : 45.6 MiB (8%)
Alignment : Aligned on interleaves
Interleave, duration : 250 ms (6.25 video frames)
Interleave, preload duration : 192 ms
info [Профиль]  [ЛС] 

Phenom2013

Пол: Пол:Муж

Стаж: 3 года 11 месяцев

Сообщений: 152

СССР
Рейтинг

post 13-Апр-2014 20:44 (спустя 4 часа) [-]0[+]

[Цитировать] 

kolob_125
info [Профиль]  [ЛС] 

Gvodz2

Пол: Пол:Муж

Стаж: 3 года 10 месяцев

Сообщений: 9

Россия
Рейтинг

post 14-Апр-2014 20:08 (спустя 23 часа) [-]0[+]

[Цитировать] 

Спасибо залившему ! kolob_142
info [Профиль]  [ЛС] 
Показать сообщения:    
Ответить на тему

Текущее время: 08-Дек 22:19

Часовой пояс: GMT + 4



Вы не можете начинать темы
Вы не можете отвечать на сообщения
Вы не можете редактировать свои сообщения
Вы не можете удалять свои сообщения
Вы не можете голосовать в опросах
Вы не можете прикреплять файлы к сообщениям
Вы не можете скачивать файлы