Ошибка

ВВС: Планета Земля: Львы пустыни & Снежные леопарды / Planet Earth - Natural World: Desert Lions & Snow Leopards (2 серии) (Дэвид Аттенборо / David Attenborough) [2010 г., документальный, BDRip]

Ответить на тему
 
Автор Сообщение

markfiter

Пол: Пол:Муж

Стаж: 4 года 11 месяцев

Сообщений: 2722

Германия
Рейтинг

post 13-Апр-2014 16:03 0[+]

[Цитировать] 

ВВС: Планета Земля: Львы пустыни & Снежные леопарды / Planet Earth - Natural World: Desert Lions & Snow Leopards

Год выпуска: 2010
Страна: Великобритания
Жанр: документальный
Продолжительность: 00:48:52 + 0:49:23
Перевод: Профессиональный (одноголосый) [студия "Кипарис"]

Режиссер: Дэвид Аттенборо / David Attenborough

Описание: Намиб - древнейшая пустыня на земле. Безжалостная и непрощающая, постичь её нелегко. Изменчивые воды Берега скелетов закрывают доступ к пустыне по всей её длине. Неудивительно, что Намиб так хорошо хранит свои секреты. Когда-то здесь жили львы. Однако они были подобны призракам, их редко кто видел. Потом, более двадцати лет назад, они куда-то исчезли. И сегодня один человек решил бросить вызов пустыне. Им движет вера, что самые удивительные львы Африки постепенно возвращаются...
Добро пожаловать в величественную горную страну, расположенную на территории Пакистана. Здесь, в укромной пещере, скрытой от посторонних глаз, находится одно из убежищ снежного барса - самого редкого и самого красивого представителя семейства больших кошек. Вам предстоит незабываемое путешествие в эту неизведанную часть мира, чтобы воочию понаблюдать за этим грациозным животным. Каждый год снежные барсы возвращаются к этой пещере, чтобы растить здесь свое потомство. Вы сможете увидеть, как они охотятся, узнать об их повадках и особенностях. Этот фильм - попытка показать суровую красоту места, которое многие считают опасным и негостеприимным.

Качество: BDRip
Формат: AVI
Видео кодек: XviD
Аудио кодек: AC3
Видео: 720x400 (16:9), 29,970 fps, XviD build 65, ~2350 kbps avg, 0.27 bit/pixel
Аудио: 48.0 kHz, AC3 Dolby Digital, 3/2 (L,C,R,l,r) + LFE ch, ~384.00 kbps avg
General
Format : AVI
Format/Info : Audio Video Interleave
File size : 966 MiB
Duration : 49mn 11s
Overall bit rate : 2 745 Kbps
Writing application : VirtualDubMod 1.5.10.3 | www.virtualdub-fr.org || (build 2550/release)
Writing library : VirtualDubMod build 2550/release

Video
ID : 0
Format : MPEG-4 Visual
Format profile : Advanced Simple@L5
Format settings, BVOP : 2
Format settings, QPel : No
Format settings, GMC : No warppoints
Format settings, Matrix : Default (H.263)
Codec ID : XVID
Codec ID/Hint : XviD
Duration : 49mn 11s
Bit rate : 2 349 Kbps
Width : 720 pixels
Height : 400 pixels
Display aspect ratio : 16:9
Frame rate : 29.970 fps
Color space : YUV
Chroma subsampling : 4:2:0
Bit depth : 8 bits
Scan type : Progressive
Compression mode : Lossy
Bits/(Pixel*Frame) : 0.272
Stream size : 827 MiB (86%)
Writing library : XviD 65

Audio
ID : 1
Format : AC-3
Format/Info : Audio Coding 3
Mode extension : CM (complete main)
Format settings, Endianness : Big
Codec ID : 2000
Duration : 49mn 11s
Bit rate mode : Constant
Bit rate : 384 Kbps
Channel count : 6 channels
Channel positions : Front: L C R, Side: L R, LFE
Sampling rate : 48.0 KHz
Bit depth : 16 bits
Compression mode : Lossy
Stream size : 135 MiB (14%)
Alignment : Split accross interleaves
Interleave, duration : 33 ms (1.00 video frame)
Interleave, preload duration : 500 ms
Эпизод 1: Львы пустыни / Desert Lions
Описание: Намиб - древнейшая пустыня на земле. Безжалостная и непрощающая, постичь её нелегко. Изменчивые воды Берега скелетов закрывают доступ к пустыне по всей её длине. Неудивительно, что Намиб так хорошо хранит свои секреты. Когда-то здесь жили львы. Однако они были подобны призракам, их редко кто видел. Потом, более двадцати лет назад, они куда-то исчезли. И сегодня один человек решил бросить вызов пустыне. Им движет вера, что самые удивительные львы Африки постепенно возвращаются...
Эпизод 2: Снежный Барс - Мифы или реальность / Snow Leopard - Beyond the Myth
Описание: Добро пожаловать в величественную горную страну, расположенную на территории Пакистана. Здесь, в укромной пещере, скрытой от посторонних глаз, находится одно из убежищ снежного барса - самого редкого и самого красивого представителя семейства больших кошек. Вам предстоит незабываемое путешествие в эту неизведанную часть мира, чтобы воочию понаблюдать за этим грациозным животным. Каждый год снежные барсы возвращаются к этой пещере, чтобы растить здесь свое потомство. Вы сможете увидеть, как они охотятся, узнать об их повадках и особенностях. Этот фильм - попытка показать суровую красоту места, которое многие считают опасным и негостеприимным.
info [Профиль]  [ЛС] 
Показать сообщения:    
Ответить на тему

Текущее время: 04-Дек 12:18

Часовой пояс: GMT + 4



Вы не можете начинать темы
Вы не можете отвечать на сообщения
Вы не можете редактировать свои сообщения
Вы не можете удалять свои сообщения
Вы не можете голосовать в опросах
Вы не можете прикреплять файлы к сообщениям
Вы не можете скачивать файлы