Ошибка

До окончания фрилича осталось:


Холодное Сердце / Frozen (Крис Бак, Дженнифер Ли) [2013, Анимация, Фэнтези, Комедия, Приключения, BDRip 720p] дополнительные материалы

Ответить на тему
 
Автор Сообщение

LuNNaЯ

Пол: Пол:Жен

Стаж: 2 года 8 месяцев

Сообщений: 9

Россия
Рейтинг

post 10-Апр-2014 23:12 0[+]

[Цитировать] 


Холодное Сердце / Frozen


Год выпуска: 2013
Страна: США | Walt Disney Animation Studios | Walt Disney Pictures
Жанр: Анимация, Фэнтези, Комедия, Приключения
Режиссер: Крис Бак, Дженнифер Ли
В ролях: Кристен Белл, Идина Мензел, Джонатан Грофф, Джош Гад, Сантино Фонтана, Алан Тьюдик, Киаран Хайндс, Крис Уильямс, Стивен Дж. Андерсон, Майа Уилсон
Описание:
Когда древнее предсказание сбывается и королевство погружается в объятия вечной зимы, трое бесстрашных героев - принцесса Анна, отважный Кристофф и его верный олень Свен - отправляются в горы, чтобы найти сестру Анны, Эльзу, которая может снять со страны леденящее заклятие.
Качество: BDRip
Формат: MKV
Видео кодек: H264
Аудио кодек: AC3
Видео: 1280x720 (16:9), 23,976 fps, H264, ~5000 kbps avg, ~0.230 bit/pixel
Аудио: 48 kHz, AC3 Dolby Digital, 2/0 (L,R), ~192.00 kbps avg
Продолжительность: 0:27:30
Перевод: Субтитры
Русские субтитры: есть
Примечание: Бонусы комплектуются русскими и английскими субтитрами.


Сэмпл
Версия формата : Version 4 / Version 2
Размер файла : 243 Мбайт
Продолжительность : 6 м. 0 с.
Общий поток : 5648 Кбит/сек
Название фильма : Supplements for 'Frozen (2013)' by larin © 2014
Дата кодирования : UTC 2010-02-22 21:41:31
Программа кодирования : mkvmerge v5.9.0 ('On The Loose') built on Dec 9 2012 15:37:01
Библиотека кодирования : libebml v1.3.0 + libmatroska v1.4.0

Видео
Идентификатор : 1
Формат : AVC
Формат/Информация : Advanced Video Codec
Профиль формата : Main@L4.1
Параметр CABAC формата : Да
Параметр ReFrames формата : 4 кадра
Идентификатор кодека : V_MPEG4/ISO/AVC
Продолжительность : 6 м. 0 с.
Битрейт : 5000 Кбит/сек
Ширина : 1280 пикселей
Высота : 528 пикселей
Соотношение сторон : 2,40:1
Режим частоты кадров : Постоянный
Частота кадров : 23,976 кадра/сек
Цветовое пространство : YUV
Субдискретизация насыщенности : 4:2:0
Битовая глубина : 8 бит
Тип развёртки : Прогрессивная
Бит/(Пиксели*Кадры) : 0.309
Размер потока : 211 Мбайт (87%)
Заголовок : Exclusive for rutracker.org by larin © 2014
Библиотека кодирования : x264 core 130 r2273 b3065e6
Default : Да
Forced : Нет

Аудио
Идентификатор : 2
Формат : AC-3
Формат/Информация : Audio Coding 3
Расширение режима : CM (complete main)
Параметр Endianness формата : Big
Идентификатор кодека : A_AC3
Продолжительность : 6 м. 0 с.
Вид битрейта : Постоянный
Битрейт : 640 Кбит/сек
Каналы : 6 каналов
Расположение каналов : Front: L C R, Side: L R, LFE
Частота : 48,0 КГц
Битовая глубина : 16 бит
Метод сжатия : С потерями
Размер потока : 27,5 Мбайт (11%)
Язык : Russian
Default : Да
Forced : Нет

1. Короткометражка "Конь-Огонь" (HD, 0:06:00 | Русский Дубляж)
2. Рассказ о Съёмках "Холодного Сердца" (HD, 0:03:18)
3. Путь от Ганса Христиана Андерсена до "Холодного Сердца" (HD, 0:07:28)
4. Удалённые Сцены (HD, 0:06:51)
4.1. Нельзя Недооценивать Мощь Эльзы (HD, 0:01:27)
4.2. Гардеробная (HD, 0:02:44)
4.3. Познакомьтесь с Кристоффом №1 (HD, 0:01:18)
4.4. Познакомьтесь с Кристоффом №2 (HD, 0:01:21)
5. Demi Lovato - "Let It Go" (HD, 0:03:51)
info [Профиль]  [ЛС] 

Proxy9

Пол: Пол:Муж

Стаж: 6 лет 9 месяцев

Сообщений: 96

Россия
Рейтинг

post 11-Апр-2014 13:13 (спустя 14 часов) [-]0[+]

[Цитировать] 

Откуда название-Холодное сердце? kolob_135

_________________
info [Профиль]  [ЛС] 

AstraZak

Пол: Пол:Муж

Стаж: 6 лет 11 месяцев

Сообщений: 187

Предупреждений: 1

Россия
Рейтинг

post 11-Апр-2014 13:37 (спустя 24 минуты) [-]1[+]

[Цитировать] 

Цитата:

Откуда название-Холодное сердце? kolob_135
В диснее с этим все строго, если так назвали, значит были причины.
info [Профиль]  [ЛС] 

LuNNaЯ

Пол: Пол:Жен

Стаж: 2 года 8 месяцев

Сообщений: 9

Россия
Рейтинг

post 11-Апр-2014 17:46 (спустя 4 часа) [-]0[+]

[Цитировать] 

+1)))
info [Профиль]  [ЛС] 

Mend

Пол: Пол:Муж

Стаж: 7 лет 2 месяца

Сообщений: 74

Россия
Рейтинг

post 11-Апр-2014 19:44 (спустя 1 час 58 минут) [-]0[+]

[Цитировать] 

А где?
4. Удалённые Сцены (HD, 0:06:51)
info [Профиль]  [ЛС] 

LuNNaЯ

Пол: Пол:Жен

Стаж: 2 года 8 месяцев

Сообщений: 9

Россия
Рейтинг

post 11-Апр-2014 20:23 (спустя 38 минут) [-]0[+]

[Цитировать] 

4 и подразделы
4. Удалённые Сцены (HD, 0:06:51)
4.1. Нельзя Недооценивать Мощь Эльзы (HD, 0:01:27)
4.2. Гардеробная (HD, 0:02:44)
4.3. Познакомьтесь с Кристоффом №1 (HD, 0:01:18)
4.4. Познакомьтесь с Кристоффом №2 (HD, 0:01:21)
info [Профиль]  [ЛС] 

vlad1988

Пол: Пол:Муж

Стаж: 7 лет 4 месяца

Сообщений: 41

Россия
Рейтинг

post 11-Апр-2014 21:19 (спустя 55 минут) [-]0[+]

[Цитировать] 

где удаленные сцены kolob_121 ?
info [Профиль]  [ЛС] 
Показать сообщения:    
Ответить на тему

Текущее время: 10-Дек 01:24

Часовой пояс: GMT + 4



Вы не можете начинать темы
Вы не можете отвечать на сообщения
Вы не можете редактировать свои сообщения
Вы не можете удалять свои сообщения
Вы не можете голосовать в опросах
Вы не можете прикреплять файлы к сообщениям
Вы не можете скачивать файлы