Ошибка

Фаринелли-кастрат / Farinelli (Жерар Корбьо) [1994 г., драма, биография, музыка, BDRemux 1080p]

Ответить на тему
 
Автор Сообщение

Basketballman

Пол: Пол:Муж

Стаж: 7 лет 1 месяц

Сообщений: 280

Россия
Рейтинг

post 09-Апр-2014 13:40 0[+]

[Цитировать] 

Фаринелли-кастрат / Farinelli

Год выпуска: 1994
Страна: Франция, Италия, Бельгия
Жанр: драма, биография, музыка
Продолжительность: 01:46:08
Перевод: 1 профессиональный (многоголосый, закадровый) [лицензия]
Перевод: 2 одноголосый, закадровый (Ю.Сербин)
Субтитры: русские, английские
Режиссер:
  • Жерар Корбьо
В ролях:
  • Стефано Дионизи, Энрико Ло Версо, Эльза Зильберштейн, Ерун Краббе, Каролин Селлье, Рено Ду Пилу Де Сэйнт Ромейн, Омеро Антонутти, Марианн Басле, Пьер Паоло Каппони, Грэм Валентайн, Жак Буде, Дельфин Зенту

Описание: Эта кинолента рассказывает о том, что простое личное счастье может оказаться более желанным, чем грандиозный общественный успех.


Качество: BDRemux 1080p
Формат: MKV
Видео кодек: MPEG-4
Аудио кодек: AC3, DTS-HD
Видео: 1920x1080, 25.000 fps, 21.0 Mбит/с
Аудио 1: Russian: AC3, 6 ch, 384 Kbps
Аудио 1: Russian: AC3, 2 ch, 384 Kbps
Аудио 2: Russian: DTS-HD MA, 6 ch, 2116 Kbps (одноголосый, закадровый (Ю.Сербин))
Аудио 2: French: DTS-HD MA, 6 ch, 2090 Kbps
Субтитры: PGS

Sample
General
Unique ID : 223930304899035487338072066547389651509 (0xA877687077126DB0B4F9FE91DCC15A35)
Complete name : D:\Кино\Farinelli BDRemux.mkv
Format : Matroska
Format version : Version 4 / Version 2
File size : 19.3 GiB
Duration : 1h 46mn
Overall bit rate mode : Variable
Overall bit rate : 26.0 Mbps
Encoded date : UTC 2014-04-09 08:28:42
Writing application : mkvmerge v6.4.1 ('Omega Point') built on Sep 16 2013 22:05:10
Writing library : libebml v1.3.0 + libmatroska v1.4.1

Video
ID : 1
Format : AVC
Format/Info : Advanced Video Codec
Format profile : High@L4.1
Format settings, CABAC : Yes
Format settings, ReFrames : 2 frames
Codec ID : V_MPEG4/ISO/AVC
Duration : 1h 46mn
Bit rate mode : Variable
Width : 1 920 pixels
Height : 1 080 pixels
Display aspect ratio : 16:9
Frame rate mode : Constant
Frame rate : 25.000 fps
Color space : YUV
Chroma subsampling : 4:2:0
Bit depth : 8 bits
Scan type : Interlaced
Scan order : Top Field First
Default : Yes
Forced : No

Audio #1
ID : 2
Format : AC-3
Format/Info : Audio Coding 3
Mode extension : CM (complete main)
Format settings, Endianness : Big
Codec ID : A_AC3
Duration : 1h 46mn
Bit rate mode : Constant
Bit rate : 384 Kbps
Channel count : 6 channels
Channel positions : Front: L C R, Side: L R, LFE
Sampling rate : 48.0 KHz
Bit depth : 16 bits
Compression mode : Lossy
Stream size : 292 MiB (1%)
Language : Russian
Default : Yes
Forced : No

Audio #2
ID : 3
Format : AC-3
Format/Info : Audio Coding 3
Mode extension : CM (complete main)
Format settings, Endianness : Big
Codec ID : A_AC3
Duration : 1h 46mn
Bit rate mode : Constant
Bit rate : 384 Kbps
Channel count : 2 channels
Channel positions : Front: L R
Sampling rate : 48.0 KHz
Bit depth : 16 bits
Compression mode : Lossy
Stream size : 292 MiB (1%)
Language : Russian
Default : No
Forced : No

Audio #3
ID : 4
Format : DTS
Format/Info : Digital Theater Systems
Format profile : MA / Core
Mode : 16
Format settings, Endianness : Big
Codec ID : A_DTS
Duration : 1h 46mn
Bit rate mode : Variable
Bit rate : Unknown / 1 509 Kbps
Channel count : 6 channels
Channel positions : Front: L C R, Side: L R, LFE
Sampling rate : 48.0 KHz
Bit depth : 16 bits
Compression mode : Lossless / Lossy
Title : Ю.Сербин
Language : Russian
Default : No
Forced : No

Audio #4
ID : 5
Format : DTS
Format/Info : Digital Theater Systems
Format profile : MA / Core
Mode : 16
Format settings, Endianness : Big
Codec ID : A_DTS
Duration : 1h 46mn
Bit rate mode : Variable
Bit rate : Unknown / 1 509 Kbps
Channel count : 6 channels
Channel positions : Front: L C R, Side: L R, LFE
Sampling rate : 48.0 KHz
Bit depth : 16 bits
Compression mode : Lossless / Lossy
Language : French
Default : No
Forced : No

Text #1
ID : 6
Format : PGS
Codec ID : S_HDMV/PGS
Codec ID/Info : The same subtitle format used on BDs/HD-DVDs
Language : Russian
Default : No
Forced : No

Text #2
ID : 7
Format : PGS
Codec ID : S_HDMV/PGS
Codec ID/Info : The same subtitle format used on BDs/HD-DVDs
Language : English
Default : No
Forced : No

Menu
00:00:00.000 : :00:00:00.000
00:07:58.920 : :00:07:58.920
00:18:02.240 : :00:18:02.240
00:25:31.160 : :00:25:31.160
00:33:25.278 : :00:33:25.278
00:42:28.480 : :00:42:28.480
00:53:09.119 : :00:53:09.119
01:01:30.360 : :01:01:30.360
01:08:43.920 : :01:08:43.920
01:15:53.680 : :01:15:53.680
01:28:15.238 : :01:28:15.238
01:34:55.880 : :01:34:55.880
info [Профиль]  [ЛС] 

viktorius3

Пол: Пол:Муж

Стаж: 5 лет 4 месяца

Сообщений: 436

Предупреждений: 2

Новая Зеландия
Рейтинг

post 09-Апр-2014 16:18 (спустя 2 часа 37 минут) [-]-17[+]

[Цитировать] 

Фаринелли-кастрат / Farinelli мда....... del

_________________
info [Профиль]  [ЛС] 

Moreao

Пол: Пол:Муж

Стаж: 6 лет 2 месяца

Сообщений: 229

Украина
Рейтинг

post 09-Апр-2014 17:03 (спустя 44 минуты) [-]1[+]

[Цитировать] 

Ну если посмотреть на обложку то русское название более точное.
info [Профиль]  [ЛС] 

Dest1ny

Пол: Пол:Муж

Стаж: 7 лет 6 месяцев

Сообщений: 72

Украина
Рейтинг

post 09-Апр-2014 18:11 (спустя 1 час 8 минут) [-]3[+]

[Цитировать] 

Ну на обложке так и написано "il castrato"

_________________
Вполне вероятно, что если сойти с ума, то мир вокруг окажется ближе, понятней и родней.
info [Профиль]  [ЛС] 

Korleone2

Пол: Пол:Муж

Стаж: 7 лет 3 месяца

Сообщений: 1932

Россия
Рейтинг

post 09-Апр-2014 20:09 (спустя 1 час 57 минут) [-]2[+]

[Цитировать] 

Отличный фильм
info [Профиль]  [ЛС] 

Montgomery

Пол: Пол:Муж

Стаж: 4 года

Сообщений: 706

Россия
Рейтинг

post 10-Апр-2014 10:07 (спустя 13 часов) [-]3[+]

[Цитировать] 

Слышал запись годов так 20-30х последнего кастрата, посредственное звучание, в голосе не было ничего особенного, скорее какой-то культурный шок от мужского сопрано, видимо мы слишком далеко ушли от той культуры, чтобы этим восхищаться.
info [Профиль]  [ЛС] 
Показать сообщения:    
Ответить на тему

Текущее время: 04-Дек 12:17

Часовой пояс: GMT + 4



Вы не можете начинать темы
Вы не можете отвечать на сообщения
Вы не можете редактировать свои сообщения
Вы не можете удалять свои сообщения
Вы не можете голосовать в опросах
Вы не можете прикреплять файлы к сообщениям
Вы не можете скачивать файлы