Ошибка

Байонетта: Кровавая судьба / Bayonetta: Bloody Fate [Movie] [2013][приключения, фэнтези, драма, мистика] [TVRip] [720p] [Любительский]

Ответить на тему
 
Автор Сообщение

sergeiivas

Стаж: 4 года 1 месяц

Сообщений: 16

Рейтинг

post 27-Мар-2014 04:16 1[+]

[Цитировать] 


Байонетта: Кровавая Судьба

Год выпуска: 2013
Страна: Япония
Жанры: боевик, фэнтези, мистика
Продолжительность: 01:30:23
Перевод: Любительский (многоголосый закадровый) Trina_D & Oriko & Ancord & BalFor & Jam & Cuba77 озвучка вшита
Режиссер: Кидзаки Фуминори

Студия:
Описание:
Очаровательная главная героиня – Байонетта – единственная оставшаяся в живых представительница могущественного клана ведьм. Ей помогает проныра Энцо. В противниках – монстры и другие ведьмы, и некоторые из них кое-что знают о ее прошлом. Героиня отправляется в путешествие, но вместо желанных ответов получает все больше вопросов. Путь к истине будет нелегким.



Качество: TVRip
Формат: MPEG
Видео кодек: H.264
Аудио кодек: AAC

Имя файла: Bayonetta Bloody Fate.mp4
Размер файла: 1.22 GB
Длительность: 1h 30mn
Общий битрейт: 1 937 Kbps
Видео: AVC, 1280x720 (16:9), 25.000 fps, 1 800 Kbps (0.078 bit/pixel)
Аудио: AAC LC, 44.1 KHz, 2 ch, 128 Kbps, CBR

Код:

General
Complete name                            : C:\Users\Vel\Documents\Байонетта Кровавая судьба  Bayonetta Bloody Fate.mp4
Format                                   : MPEG-4
Format profile                           : Base Media
Codec ID                                 : isom
File size                                : 1.22 GiB
Duration                                 : 1h 30mn
Overall bit rate                         : 1 937 Kbps
Writing application                      : Lavf54.59.106

Video
ID                                       : 1
Format                                   : AVC
Format/Info                              : Advanced Video Codec
Format profile                           : High@L3.1
Format settings, CABAC                   : Yes
Format settings, ReFrames                : 4 frames
Codec ID                                 : avc1
Codec ID/Info                            : Advanced Video Coding
Duration                                 : 1h 30mn
Bit rate                                 : 1 800 Kbps
Width                                    : 1 280 pixels
Height                                   : 720 pixels
Display aspect ratio                     : 16:9
Frame rate mode                          : Constant
Frame rate                               : 25.000 fps
Color space                              : YUV
Chroma subsampling                       : 4:2:0
Bit depth                                : 8 bits
Scan type                                : Progressive
Bits/(Pixel*Frame)                       : 0.078
Stream size                              : 1.14 GiB (93%)
Writing library                          : x264 core 129
Encoding settings                        : cabac=1 / ref=3 / deblock=1:0:0 / analyse=0x3:0x113 / me=hex / subme=7 / psy=1 / psy_rd=1.00:0.00 / mixed_ref=1 / me_range=16 / chroma_me=1 / trellis=1 / 8x8dct=1 / cqm=0 / deadzone=21,11 / fast_pskip=1 / chroma_qp_offset=-2 / threads=24 / lookahead_threads=4 / sliced_threads=0 / nr=0 / decimate=1 / interlaced=0 / bluray_compat=0 / constrained_intra=0 / bframes=3 / b_pyramid=2 / b_adapt=1 / b_bias=0 / direct=1 / weightb=1 / open_gop=0 / weightp=2 / keyint=250 / keyint_min=25 / scenecut=40 / intra_refresh=0 / rc_lookahead=40 / rc=abr / mbtree=1 / bitrate=1800 / ratetol=1.0 / qcomp=0.60 / qpmin=0 / qpmax=69 / qpstep=4 / ip_ratio=1.40 / aq=1:1.00

Audio
ID                                       : 2
Format                                   : AAC
Format/Info                              : Advanced Audio Codec
Format profile                           : LC
Codec ID                                 : 40
Duration                                 : 1h 30mn
Duration_LastFrame                       : -13ms
Bit rate mode                            : Constant
Bit rate                                 : 128 Kbps
Channel(s)                               : 2 channels
Channel positions                        : Front: L R
Sampling rate                            : 44.1 KHz
Compression mode                         : Lossy
Delay relative to video                  : 80ms
Stream size                              : 82.5 MiB (7%)
Language                                 : English

info [Профиль]  [ЛС] 

ksained

Пол: Пол:Муж

Стаж: 3 года 8 месяцев

Сообщений: 19

Россия
Рейтинг

post 29-Мар-2014 19:06 (спустя 2 дня 14 часов) [-]0[+]

[Цитировать] 

отлично! ща заценим Улыбаюсь
info [Профиль]  [ЛС] 

leSang

Пол: Пол:Муж

Стаж: 7 лет 8 месяцев

Сообщений: 926

Япония
Рейтинг

post 30-Мар-2014 01:05 (спустя 5 часов) [-]-1[+]

[Цитировать] 

омг! без jap anime_11

_________________
info [Профиль]  [ЛС] 

Jecsus9600

Пол: Пол:Муж

Стаж: 7 лет 2 месяца

Сообщений: 177

Рейтинг

post 30-Мар-2014 10:11 (спустя 9 часов) [-]0[+]

[Цитировать] 

Тут будет пересказ сюжета игры? Или отдельная история?

leSang писал(а):

омг! без jap anime_11
да, плохо. Только качать собрался
info [Профиль]  [ЛС] 
Показать сообщения:    
Ответить на тему

Текущее время: 06-Дек 18:12

Часовой пояс: GMT + 4



Вы не можете начинать темы
Вы не можете отвечать на сообщения
Вы не можете редактировать свои сообщения
Вы не можете удалять свои сообщения
Вы не можете голосовать в опросах
Вы не можете прикреплять файлы к сообщениям
Вы не можете скачивать файлы