Ошибка

Белка и Стрелка: Лунные приключения (Александр Храмцов, Инна Евланникова, Вадим Сотсков) [2013, мультфильм, комедия, приключения, семейный, WEB-DL 720p]

Ответить на тему
 
Автор Сообщение

BZzz

Пол: Пол:Муж

Стаж: 5 лет 1 месяц

Сообщений: 3647

Россия
Рейтинг

post 21-Мар-2014 03:06 1[+]

[Цитировать] 

Белка и Стрелка: Лунные приключения
«Полетели вместе!»




Год выпуска: 2013
Страна: Россия
Жанр: мультфильм, комедия, приключения, семейный
Продолжительность: 01:15:01
Перевод: Оригинал [цифровая лицензия iTunes]

Режиссер: Александр Храмцов, Инна Евланникова, Вадим Сотсков

В ролях: Нонна Гришаева, Марьяна Спивак, Евгений Миронов, Тимур Родригез, Сергей Гармаш, Лев Аксельрод, Илья Храмцов, Стася Кудякова

Описание: На Земле начали происходить странные и загадочные явления, несущие угрозу для планеты. Их след ведет в космос, на темную сторону Луны. Раскрыть тайну века поручили отряду Казбека. Белка, Стрелка и вся команда веселых и отважных героев отправляются на Луну, чтобы выполнить опасную миссию. Страсть к приключениям, искрометный юмор и великий дух космического братства поддержат в минуту великой опасности и помогут раскрыть всю правду о Луне и ее обитателях.

Сборы в мире: $5 730 973
Сборы в России: $5 870 519



Качество: WEB-DL 720p
Формат: MKV
Видео кодек: AVC
Аудио кодек: AC3
Видео: 1280x720 (16:9), 24.000 fps, AVC, 3 958 Kbps
Аудио #1: AC3, 384 Kbps, 48.0 KHz, 6 ch
General
Complete name : Belka.i.Strelka.Lunnye.priklyucheniya.2013.O.WEB-DL.720p.mkv
Format : Matroska
File size : 2.32 GiB
Duration : 1h 15mn
Overall bit rate : 4 430 Kbps
Encoded date : UTC 2014-03-20 22:01:49
Writing application : mkvmerge v6.1.0 ('Old Devil') built on Mar 4 2013 09:10:42
Writing library : libebml v1.3.0 + libmatroska v1.4.0

Video
ID : 1
Format : AVC
Format/Info : Advanced Video Codec
Format profile : High@L3.1
Format settings, CABAC : No
Format settings, ReFrames : 2 frames
Muxing mode : Container profile=Unknown@3.1
Codec ID : V_MPEG4/ISO/AVC
Duration : 1h 15mn
Bit rate : 3 958 Kbps
Width : 1 280 pixels
Height : 720 pixels
Display aspect ratio : 16:9
Frame rate : 24.000 fps
Color space : YUV
Chroma subsampling : 4:2:0
Bit depth : 8 bits
Scan type : Progressive
Bits/(Pixel*Frame) : 0.179
Stream size : 2.07 GiB (89%)
Color primaries : BT.709-5, BT.1361, IEC 61966-2-4, SMPTE RP177
Transfer characteristics : BT.709-5, BT.1361
Matrix coefficients : BT.709-5, BT.1361, IEC 61966-2-4 709, SMPTE RP177

Audio
ID : 2
Format : AC-3
Format/Info : Audio Coding 3
Mode extension : CM (complete main)
Codec ID : A_AC3
Duration : 1h 15mn
Bit rate mode : Constant
Bit rate : 384 Kbps
Channel(s) : 6 channels
Channel positions : Front: L C R, Side: L R, LFE
Sampling rate : 48.0 KHz
Bit depth : 16 bits
Stream size : 206 MiB (9%)
Language : Russian

Menu
00:00:00.000 : en:Глава 1
00:05:17.000 : en:Глава 2
00:10:08.000 : en:Глава 3
00:15:18.000 : en:Глава 4
00:20:08.000 : en:Глава 5
00:25:36.000 : en:Глава 6
00:30:09.000 : en:Глава 7
00:35:06.000 : en:Глава 8
00:40:14.000 : en:Глава 9
00:45:30.000 : en:Глава 10
00:50:34.000 : en:Глава 11
00:55:08.000 : en:Глава 12
01:00:11.000 : en:Глава 13
01:05:00.000 : en:Глава 14
info [Профиль]  [ЛС] 

Svalker

Пол: Пол:Муж

Стаж: 5 лет 1 месяц

Сообщений: 201

Россия
Рейтинг

post 24-Мар-2014 15:58 (спустя 3 дня) [-]0[+]

[Цитировать] 

Ставите статус "Прилеплено" дабы поддержать отечественного производителя?)

_________________
info [Профиль]  [ЛС] 

post 29-Мар-2014 16:00 (спустя 5 дней) [-]0[+]

Топик был перенесен из форума Rips в форум DVD, HD DVD, Blu-ray, HD Rips, Web-DL

BZzz
 

post 30-Апр-2014 20:45 (спустя 1 месяц 6 дней) [-]0[+]

Топик был перенесен из форума DVD, HD DVD, Blu-ray, HD Rips, Web-DL в форум Мультфильмы (HD Video)

koss555
 
Показать сообщения:    
Ответить на тему

Текущее время: 09-Дек 21:29

Часовой пояс: GMT + 4



Вы не можете начинать темы
Вы не можете отвечать на сообщения
Вы не можете редактировать свои сообщения
Вы не можете удалять свои сообщения
Вы не можете голосовать в опросах
Вы не можете прикреплять файлы к сообщениям
Вы не можете скачивать файлы