Ошибка

Молода и прекрасна / Jeune & Jolie / Young & Beautiful (Франсуа Озон) [2013 г., драма, BDRemux 1080p]

Ответить на тему
 
Автор Сообщение

Basketballman

Пол: Пол:Муж

Стаж: 7 лет 1 месяц

Сообщений: 280

Россия
Рейтинг

post 05-Мар-2014 13:00 1[+]

[Цитировать] 

Молода и прекрасна / Jeune & Jolie / Young & Beautiful

Год выпуска: 2013
Страна: Франция
Жанр: драма
Продолжительность: 01:33:20
Перевод: профессиональный (полное дублирование) [лицензия R5]
Субтитры: французские, английские
Режиссер:
  • Франсуа Озон
В ролях:
  • Марина Вакт, Жеральдин Пайя, Фредерик Пьеро, Шарлотта Рэмплинг, Фантен Рава, Йохан Лейзен, Натали Ришар, Джедже Апали, Люка Призор, Лорен Дельбек

Описание: Семнадцатилетняя Изабель погружается в бездонный мир любви, в поиски себя. Не столько из-за денег, сколько ради удовольствия, она встречается с немолодыми клиентами в гостиничных номерах. Близкие Изабель не подозревают, чем одержима умная и тонкая девушка. Но однажды умирает один из ее постоянных клиентов…


Качество: BDRemux 1080p
Формат: MKV
Видео кодек: MPEG-4
Аудио кодек: AC3, DTS, DTS-HD
Видео: 1920x1080, 23.976 fps, 31.9 Mбит/с
Аудио 1: Russian: AC3, 6 ch, 384 Kbps
Аудио 2: French: DTS-HD MA, 6 ch, 1719 Kbps
Аудио 3: French: DTS, 2 ch, 768 Kbps
Субтитры: SRT

Sample
General
Unique ID : 178845067136356424029068695181406999858 (0x868C4E98E352AA79AD320839E0DF9532)
Complete name : D:\Кино\Jeune & Jolie (Young & Beautiful) BDRemux.mkv
Format : Matroska
Format version : Version 4 / Version 2
File size : 22.7 GiB
Duration : 1h 33mn
Overall bit rate mode : Variable
Overall bit rate : 34.8 Mbps
Movie name : Jeune & Jolie (Young & Beautiful) 2013 BDRemux 1080p GORESEWAGE
Encoded date : UTC 2014-03-04 21:49:55
Writing application : mkvmerge v6.8.0 ('Theme for Great Cities') 64bit built on Mar 2 2014 21:34:26
Writing library : libebml v1.3.0 + libmatroska v1.4.1
Attachment : Yes

Video
ID : 1
Format : AVC
Format/Info : Advanced Video Codec
Format profile : High@L4.1
Format settings, CABAC : Yes
Format settings, ReFrames : 2 frames
Codec ID : V_MPEG4/ISO/AVC
Duration : 1h 33mn
Bit rate mode : Variable
Width : 1 920 pixels
Height : 1 080 pixels
Display aspect ratio : 16:9
Frame rate mode : Constant
Frame rate : 23.976 fps
Color space : YUV
Chroma subsampling : 4:2:0
Bit depth : 8 bits
Scan type : Progressive
Title : Jeune & Jolie (Young & Beautiful) 2013 BDRemux 1080p GORESEWAGE
Language : French
Default : Yes
Forced : No

Audio #1
ID : 2
Format : AC-3
Format/Info : Audio Coding 3
Mode extension : CM (complete main)
Format settings, Endianness : Big
Codec ID : A_AC3
Duration : 1h 33mn
Bit rate mode : Constant
Bit rate : 384 Kbps
Channel count : 6 channels
Channel positions : Front: L C R, Side: L R, LFE
Sampling rate : 48.0 KHz
Bit depth : 16 bits
Compression mode : Lossy
Stream size : 256 MiB (1%)
Title : Dub DVD R5
Language : Russian
Default : Yes
Forced : No

Audio #2
ID : 3
Format : DTS
Format/Info : Digital Theater Systems
Format profile : MA / Core
Mode : 16
Format settings, Endianness : Big
Codec ID : A_DTS
Duration : 1h 33mn
Bit rate mode : Variable
Bit rate : Unknown / 1 509 Kbps
Channel count : 6 channels
Channel positions : Front: L C R, Side: L R, LFE
Sampling rate : 48.0 KHz
Bit depth : 16 bits
Compression mode : Lossless / Lossy
Title : Original
Language : French
Default : No
Forced : No

Audio #3
ID : 4
Format : DTS
Format/Info : Digital Theater Systems
Mode : 16
Format settings, Endianness : Big
Codec ID : A_DTS
Duration : 1h 33mn
Bit rate mode : Constant
Bit rate : 768 Kbps
Channel count : 2 channels
Channel positions : Front: L R
Sampling rate : 48.0 KHz
Bit depth : 16 bits
Compression mode : Lossy
Stream size : 513 MiB (2%)
Title : Description
Language : French
Default : No
Forced : No

Text #1
ID : 5
Format : UTF-8
Codec ID : S_TEXT/UTF8
Codec ID/Info : UTF-8 Plain Text
Title : Forced
Language : French
Default : No
Forced : No

Text #2
ID : 6
Format : UTF-8
Codec ID : S_TEXT/UTF8
Codec ID/Info : UTF-8 Plain Text
Title : Full
Language : English
Default : No
Forced : No

Menu
00:00:00.000 : en:00:00:00.000
00:02:22.434 : en:00:02:22.434
00:07:35.288 : en:00:07:35.288
00:16:08.759 : en:00:16:08.759
00:22:17.253 : en:00:22:17.253
00:32:00.919 : en:00:32:00.919
00:36:23.973 : en:00:36:23.973
00:46:36.794 : en:00:46:36.794
00:54:12.082 : en:00:54:12.082
01:05:16.871 : en:01:05:16.871
01:10:03.366 : en:01:10:03.366
01:18:27.286 : en:01:18:27.286
01:23:39.973 : en:01:23:39.973
01:30:24.669 : en:01:30:24.669
info [Профиль]  [ЛС] 

Lit up pilot

Пол: Пол:Муж

Стаж: 5 лет 5 месяцев

Сообщений: 203

Предупреждений: 1

СССР
Рейтинг

post 06-Мар-2014 21:07 (спустя 1 день 8 часов) [-]1[+]

[Цитировать] 

(. )( .) kolob_117
info [Профиль]  [ЛС] 

AlienHouse6032

Пол: Пол:Муж

Стаж: 3 года 7 месяцев

Сообщений: 1116

Предупреждений: 4

Канада
Рейтинг

post 06-Мар-2014 22:05 (спустя 57 минут) [-]3[+]

[Цитировать] 

а актриса ни чего так ...
info [Профиль]  [ЛС] 

drunia2100

Пол: Пол:Муж

Стаж: 7 лет 6 месяцев

Сообщений: 334

Россия
Рейтинг

post 11-Мар-2014 19:01 (спустя 4 дня) [-]2[+]

[Цитировать] 

Может рип по меньше.
info [Профиль]  [ЛС] 

post 26-Апр-2014 14:20 (спустя 1 месяц 14 дней) [-]0[+]

Топик был перенесен из форума DVD, HD DVD, Blu-ray, HD Rips, Web-DL в форум Зарубежное кино | HD DVD и Blu-ray

koss555
 
Показать сообщения:    
Ответить на тему

Текущее время: 05-Дек 12:32

Часовой пояс: GMT + 4



Вы не можете начинать темы
Вы не можете отвечать на сообщения
Вы не можете редактировать свои сообщения
Вы не можете удалять свои сообщения
Вы не можете голосовать в опросах
Вы не можете прикреплять файлы к сообщениям
Вы не можете скачивать файлы