Ошибка

До окончания фрилича осталось:


Воровка книг / The Book Thief (Брайан Персивал) [2013 г., драма, военный, BDRemux 1080p]

Ответить на тему
 
Автор Сообщение

Basketballman

Пол: Пол:Муж

Стаж: 7 лет 1 месяц

Сообщений: 280

Россия
Рейтинг

post 03-Мар-2014 16:17 2[+]

[Цитировать] 

Воровка книг / The Book Thief

Год выпуска: 2013
Страна: США, Германия
Жанр: драма, военный
Продолжительность: 02:11:00
Перевод: профессиональный (полное дублирование) [лицензия]
Субтитры: русские, английские
Режиссер:
  • Брайан Персивал
В ролях:
  • Софи Нелисс, Джеффри Раш, Эмили Уотсон, Роджер Аллам, Хайке Макатч, Джулиан Леманн, Готард Ланге, Райнер Рейнерс, Керстен Блок, Нико Лирш

Описание: Германия, начало 1939 года, канун Второй мировой войны. Смерть готовится начать свою жатву. Девятилетняя Лизель переезжает в Мюнхен к своим приемным родителям и с их помощью учится читать. С каждым днем чтение становится ее жизненной потребностью, и Лизель начинает воровать книги — единственную отраду ее жизни. Все, что она узнает из них, помогает ей понять события, происходящие вокруг нее — гонение на евреев, антифашистское движение, унижения и голод. Все это, в конце концов, сложится в ее собственную историю, историю ее жизни.


Качество: BDRemux 1080p
Формат: MKV
Видео кодек: MPEG-4
Аудио кодек: AC3, DTS-HD
Видео: 1920x1080, 23.976 fps, 24.6 Mбит/с
Аудио 1: Russian: DTS, 6 ch, 768 Kbps
Аудио 2: English: DTS-HD MA, 6 ch, 3696 Kbps
Аудио 3: English: AC3, 6 ch, 448 Kbps
Субтитры: SRT

Sample
General
Unique ID : 194727319851651972415636918840666879070 (0x927F1E1CF372D31E92F8B800A64FF45E)
Complete name : D:\Кино\The Book Thief BDRemux.mkv
Format : Matroska
Format version : Version 2
File size : 27.0 GiB
Duration : 2h 10mn
Overall bit rate mode : Variable
Overall bit rate : 29.5 Mbps
Encoded date : UTC 2014-02-27 23:03:33
Writing application : mkvmerge v6.7.0 ('Back to the Ground') 64bit built on Jan 8 2014 15:10:52
Writing library : libebml v1.3.0 + libmatroska v1.4.1

Video
ID : 1
Format : AVC
Format/Info : Advanced Video Codec
Format profile : High@L4.1
Format settings, CABAC : Yes
Format settings, ReFrames : 4 frames
Codec ID : V_MPEG4/ISO/AVC
Duration : 2h 10mn
Bit rate mode : Variable
Maximum bit rate : 33.5 Mbps
Width : 1 920 pixels
Height : 1 080 pixels
Display aspect ratio : 16:9
Frame rate mode : Constant
Frame rate : 23.976 fps
Color space : YUV
Chroma subsampling : 4:2:0
Bit depth : 8 bits
Scan type : Progressive
Default : Yes
Forced : No

Audio #1
ID : 2
Format : DTS
Format/Info : Digital Theater Systems
Mode : 16
Format settings, Endianness : Big
Codec ID : A_DTS
Duration : 2h 10mn
Bit rate mode : Constant
Bit rate : 768 Kbps
Channel count : 6 channels
Channel positions : Front: L C R, Side: L R, LFE
Sampling rate : 48.0 KHz
Bit depth : 24 bits
Compression mode : Lossy
Stream size : 720 MiB (3%)
Language : Russian
Default : Yes
Forced : No

Audio #2
ID : 3
Format : DTS
Format/Info : Digital Theater Systems
Format profile : MA / Core
Mode : 16
Format settings, Endianness : Big
Codec ID : A_DTS
Duration : 2h 10mn
Bit rate mode : Variable
Bit rate : Unknown / 1 509 Kbps
Channel count : 6 channels
Channel positions : Front: L C R, Side: L R, LFE
Sampling rate : 48.0 KHz
Bit depth : 24 bits
Compression mode : Lossless / Lossy
Language : English
Default : No
Forced : No

Audio #3
ID : 4
Format : AC-3
Format/Info : Audio Coding 3
Mode extension : CM (complete main)
Format settings, Endianness : Big
Codec ID : A_AC3
Duration : 2h 10mn
Bit rate mode : Constant
Bit rate : 448 Kbps
Channel count : 6 channels
Channel positions : Front: L C R, Side: L R, LFE
Sampling rate : 48.0 KHz
Bit depth : 16 bits
Compression mode : Lossy
Stream size : 420 MiB (2%)
Language : English
Default : No
Forced : No

Text #1
ID : 5
Format : UTF-8
Codec ID : S_TEXT/UTF8
Codec ID/Info : UTF-8 Plain Text
Language : Russian
Default : No
Forced : No

Text #2
ID : 6
Format : UTF-8
Codec ID : S_TEXT/UTF8
Codec ID/Info : UTF-8 Plain Text
Language : English
Default : No
Forced : No

Text #3
ID : 7
Format : UTF-8
Codec ID : S_TEXT/UTF8
Codec ID/Info : UTF-8 Plain Text
Language : English
Default : No
Forced : No

Menu
00:00:00.000 : en:00:00:00.000
00:03:50.230 : en:00:03:50.230
00:07:58.061 : en:00:07:58.061
00:10:27.126 : en:00:10:27.126
00:13:42.405 : en:00:13:42.405
00:17:54.949 : en:00:17:54.949
00:20:17.591 : en:00:20:17.591
00:23:01.380 : en:00:23:01.380
00:24:57.746 : en:00:24:57.746
00:26:58.158 : en:00:26:58.158
00:30:54.811 : en:00:30:54.811
00:34:01.164 : en:00:34:01.164
00:39:21.859 : en:00:39:21.859
00:43:00.870 : en:00:43:00.870
00:45:09.999 : en:00:45:09.999
00:50:59.056 : en:00:50:59.056
00:52:18.761 : en:00:52:18.761
00:54:55.709 : en:00:54:55.709
00:59:04.624 : en:00:59:04.624
01:02:16.232 : en:01:02:16.232
01:05:42.564 : en:01:05:42.564
01:08:20.513 : en:01:08:20.513
01:12:41.983 : en:01:12:41.983
01:18:14.857 : en:01:18:14.857
01:23:50.025 : en:01:23:50.025
01:27:59.399 : en:01:27:59.399
01:30:46.274 : en:01:30:46.274
01:36:25.405 : en:01:36:25.405
01:40:48.584 : en:01:40:48.584
01:43:54.812 : en:01:43:54.812
01:47:24.104 : en:01:47:24.104
01:49:38.405 : en:01:49:38.405
01:54:24.274 : en:01:54:24.274
02:02:10.949 : en:02:02:10.949
02:03:13.386 : en:02:03:13.386
02:05:21.514 : en:02:05:21.514
info [Профиль]  [ЛС] 

lampard960

Пол: Пол:Муж

Стаж: 4 года 11 месяцев

Сообщений: 620

Ангилья
Рейтинг

post 04-Мар-2014 01:44 (спустя 9 часов) [-]0[+]

[Цитировать] 

рейтинг IMDB 7.7

_________________
info [Профиль]  [ЛС] 

Basketballman

Пол: Пол:Муж

Стаж: 7 лет 1 месяц

Сообщений: 280

Россия
Рейтинг

post 04-Мар-2014 01:49 (спустя 4 минуты) [-]0[+]

[Цитировать] 

Некорректно отображается.

lampard960 писал(а):

рейтинг IMDB 7.7

_________________
info [Профиль]  [ЛС] 

post 26-Апр-2014 14:21 (спустя 1 месяц 22 дня) [-]0[+]

Топик был перенесен из форума DVD, HD DVD, Blu-ray, HD Rips, Web-DL в форум Зарубежное кино | HD DVD и Blu-ray

koss555
 
Показать сообщения:    
Ответить на тему

Текущее время: 10-Дек 09:12

Часовой пояс: GMT + 4



Вы не можете начинать темы
Вы не можете отвечать на сообщения
Вы не можете редактировать свои сообщения
Вы не можете удалять свои сообщения
Вы не можете голосовать в опросах
Вы не можете прикреплять файлы к сообщениям
Вы не можете скачивать файлы