Ошибка

Гравитация 3D [Горизонтальная анаморфная стереопара] / Gravity 3D [Half Side-by-Side] (Альфонсо Куарон) [фантастика, триллер, драма, BDRip, 1080p, 3D]

Ответить на тему
 
Автор Сообщение

zayatz

Пол: Пол:Муж

Стаж: 3 года 10 месяцев

Сообщений: 530

Россия
Рейтинг

post 11-Фев-2014 10:41 1[+]

[Цитировать] 

Гравитация 3D / Gravity 3D
Год выпуска: 2013
Страна: США
Жанр: фантастика, триллер, драма
Продолжительность: 01:30:58
Перевод: Профессиональный (полное дублирование)[iTunes Russia]
Язык субтитров: Русский, Английский
Режиссер: Альфонсо Куарон

В ролях: Сандра Буллок, Джордж Клуни, Эд Харрис, Орто Игнатиуссен, Фалдут Шарма, Эми Уоррен, Башер Саваж, Дженис Ахерн
Роли дублировали: Мария Фортунатова, Дмитрий Матвеев, Сергей Чихачев, Диомид Виноградов

Описание: Доктор Райан Стоун, блестящий специалист в области медицинского инжиниринга, отправляется в свою первую космическую миссию под командованием ветерана астронавтики Мэтта Ковальски, для которого этот полет — последний перед отставкой. Но во время, казалось бы, рутинной работы за бортом случается катастрофа.
Шаттл уничтожен, а Стоун и Ковальски остаются совершенно одни; они находятся в связке друг с другом, и все, что они могут, — это двигаться по орбите в абсолютно черном пространстве без всякой связи с Землей и какой-либо надежды на спасение.

Качество: Blu-ray Rip
Формат: MKV
Видео кодек: Другой MPEG4
Аудио кодек: AC3
Видео: 1920x1080p (16:9), 23.976 fps, AVC MPEG-4 (x264), High@L4.1 ~12.5 Mbps avg, 0.251 Bits/(Pixel*Frame)
Аудио:
1. Русский: 48 kHz, AC3, 2 ch, ~384 kbps avg
2. Английский: 48 kHz, AC3, 6 ch, ~640 kbps avg
General
Complete name : D:\CINEMA\3D\Gravity 3D Гравитация 3D.mkv
Format : Matroska
Format version : Version 2
File size : 8.52 GiB
Duration : 1h 30mn
Overall bit rate mode : Variable
Overall bit rate : 13.4 Mbps
Movie name : Gravity
Encoded date : UTC 2014-02-10 11:02:45
Writing application : mkvmerge v3.3.0 ('Language') built on Mar 24 2010 14:59:24
Writing library : libebml v0.8.0 + libmatroska v0.9.0

Video
ID : 1
Format : AVC
Format/Info : Advanced Video Codec
Format profile : High@L4.1
Format settings, CABAC : Yes
Format settings, ReFrames : 3 frames
Codec ID : V_MPEG4/ISO/AVC
Duration : 1h 30mn
Bit rate mode : Variable
Bit rate : 12.5 Mbps
Maximum bit rate : 35.0 Mbps
Width : 1 920 pixels
Height : 1 080 pixels
Display aspect ratio : 16:9
Frame rate mode : Constant
Frame rate : 23.976 fps
Color space : YUV
Chroma subsampling : 4:2:0
Bit depth : 8 bits
Scan type : Progressive
Bits/(Pixel*Frame) : 0.251
Stream size : 7.70 GiB (90%)
Title : Gravity (2013) - Encoded by Immortel
Writing library : x264 core 130 r2273 b3065e6
Encoding settings : cabac=1 / ref=4 / deblock=1:-2:-2 / analyse=0x3:0x133 / me=umh / subme=9 / psy=1 / psy_rd=1.00:0.25 / mixed_ref=1 / me_range=24 / chroma_me=1 / trellis=1 / 8x8dct=1 / cqm=0 / deadzone=6,6 / fast_pskip=0 / chroma_qp_offset=-4 / threads=6 / lookahead_threads=1 / sliced_threads=0 / slices=4 / nr=0 / decimate=0 / interlaced=0 / bluray_compat=0 / constrained_intra=0 / bframes=3 / b_pyramid=1 / b_adapt=2 / b_bias=0 / direct=3 / weightb=1 / open_gop=0 / weightp=1 / keyint=48 / keyint_min=4 / scenecut=40 / intra_refresh=0 / rc_lookahead=48 / rc=2pass / mbtree=0 / bitrate=12500 / ratetol=1000000000.0 / qcomp=0.80 / qpmin=0 / qpmax=69 / qpstep=4 / cplxblur=20.0 / qblur=0.5 / vbv_maxrate=35000 / vbv_bufsize=30000 / nal_hrd=vbr / ip_ratio=1.10 / pb_ratio=1.10 / aq=2:0.50
Default : Yes
Forced : No
Color primaries : BT.709
Transfer characteristics : BT.709
Matrix coefficients : BT.709

Audio #1
ID : 2
Format : AC-3
Format/Info : Audio Coding 3
Mode extension : CM (complete main)
Format settings, Endianness : Big
Codec ID : A_AC3
Duration : 1h 30mn
Bit rate mode : Constant
Bit rate : 384 Kbps
Channel(s) : 6 channels
Channel positions : Front: L C R, Side: L R, LFE
Sampling rate : 48.0 KHz
Bit depth : 16 bits
Compression mode : Lossy
Stream size : 250 MiB (3%)
Title : Dubbing (iTunes Russia)
Language : Russian
Default : Yes
Forced : No

Audio #2
ID : 3
Format : AC-3
Format/Info : Audio Coding 3
Mode extension : CM (complete main)
Format settings, Endianness : Big
Codec ID : A_AC3
Duration : 1h 30mn
Bit rate mode : Constant
Bit rate : 640 Kbps
Channel(s) : 6 channels
Channel positions : Front: L C R, Side: L R, LFE
Sampling rate : 48.0 KHz
Bit depth : 16 bits
Compression mode : Lossy
Stream size : 416 MiB (5%)
Title : Original
Language : English
Default : No
Forced : No

Text #1
ID : 4
Format : UTF-8
Codec ID : S_TEXT/UTF8
Codec ID/Info : UTF-8 Plain Text
Title : Forced
Language : Russian
Default : Yes
Forced : No

Text #2
ID : 5
Format : UTF-8
Codec ID : S_TEXT/UTF8
Codec ID/Info : UTF-8 Plain Text
Title : SDH
Language : English
Default : No
Forced : No

Menu
00:00:00.000 : en:00:00:00.000
00:13:08.830 : en:00:13:08.830
00:21:33.542 : en:00:21:33.542
00:29:12.668 : en:00:29:12.668
00:39:59.856 : en:00:39:59.856
00:48:49.051 : en:00:48:49.051
00:57:00.667 : en:00:57:00.667
01:08:08.418 : en:01:08:08.418
01:15:27.148 : en:01:15:27.148
01:23:50.567 : en:01:23:50.567
info [Профиль]  [ЛС] 

oklibid

Пол: Пол:Муж

Стаж: 2 года 11 месяцев

Сообщений: 6

Предупреждений: 1

Россия
Рейтинг

post 11-Фев-2014 18:06 (спустя 7 часов) [-]0[+]

[Цитировать] 

когда лицуха с более лучшим звуком?а то на телеке как то тихо Грущу
info [Профиль]  [ЛС] 

Driver

Пол: Пол:Муж

Стаж: 6 лет 2 месяца

Сообщений: 2259

Россия
Рейтинг

post 11-Фев-2014 18:35 (спустя 28 минут) [-]-1[+]

[Цитировать] 

oklibid писал(а):

когда лицуха с более лучшим звуком?а то на телеке как то тихо Грущу
Как вообще можно смотреть фильмы на встроенной в ТВ "акустике"?)

_________________
PS3 Slim 320Gb (Rogero CFW 4.30 2.00) | Xbox360 Arcade 250 Gb LT+2.0 | Win 7 Ultimate x64 SP-1|Intel Core i5 750 (3.8GHz)|ASUS P7P55D-E PRO|4x2 Гб DDR3-1333 DDR3 SDRAM OCZ|GigaByte GeForce GTX 670 2048MB (320.49 WHQL)|5.5Tb+4.5Tb external|Thermaltake Element V|FSP Epsilon 800W Hi-Fi:Quadral Quintas 6000 5.0 Black + Yamaha RX-v571 Black + Dune HD Duo + 3D LED Samsung UE46 ES8000S
info [Профиль]  [ЛС] 

LMAO

Пол: Пол:Муж

Стаж: 5 лет 5 месяцев

Сообщений: 318

Россия
Рейтинг

post 11-Фев-2014 19:26 (спустя 51 минута) [-]10[+]

[Цитировать] 

Driver писал(а):

oklibid писал(а):

когда лицуха с более лучшим звуком?а то на телеке как то тихо Грущу
Как вообще можно смотреть фильмы на встроенной в ТВ "акустике"?)
Так же как и с доп акустической системой.Включаешь и смотришь.

_________________
info [Профиль]  [ЛС] 

AFILEXO

Пол: Пол:Муж

Стаж: 7 лет 1 месяц

Сообщений: 523

Россия
Рейтинг

post 11-Фев-2014 19:56 (спустя 29 минут) [-]1[+]

[Цитировать] 

фильм ради которого покупка 3д телевизора обретает смысл !
info [Профиль]  [ЛС] 

Decadeofdecade

Пол: Пол:Муж

Стаж: 6 лет 11 месяцев

Сообщений: 87

Рейтинг

post 11-Фев-2014 22:17 (спустя 2 часа 21 минута) [-]0[+]

[Цитировать] 

Del.
info [Профиль]  [ЛС] 

Sky Walmont

Пол: Пол:Муж

Стаж: 4 года 7 месяцев

Сообщений: 33

Россия
Рейтинг

post 12-Фев-2014 06:51 (спустя 8 часов) [-]1[+]

[Цитировать] 

Вот бы вертикальную пару еще..
info [Профиль]  [ЛС] 

Driver

Пол: Пол:Муж

Стаж: 6 лет 2 месяца

Сообщений: 2259

Россия
Рейтинг

post 12-Фев-2014 12:56 (спустя 6 часов) [-]0[+]

[Цитировать] 

thebest писал(а):

Driver писал(а):

oklibid писал(а):

когда лицуха с более лучшим звуком?а то на телеке как то тихо Грущу
Как вообще можно смотреть фильмы на встроенной в ТВ "акустике"?)
Так же как и с доп акустической системой.Включаешь и смотришь.
Разочарование

_________________
PS3 Slim 320Gb (Rogero CFW 4.30 2.00) | Xbox360 Arcade 250 Gb LT+2.0 | Win 7 Ultimate x64 SP-1|Intel Core i5 750 (3.8GHz)|ASUS P7P55D-E PRO|4x2 Гб DDR3-1333 DDR3 SDRAM OCZ|GigaByte GeForce GTX 670 2048MB (320.49 WHQL)|5.5Tb+4.5Tb external|Thermaltake Element V|FSP Epsilon 800W Hi-Fi:Quadral Quintas 6000 5.0 Black + Yamaha RX-v571 Black + Dune HD Duo + 3D LED Samsung UE46 ES8000S
info [Профиль]  [ЛС] 

zayatz

Пол: Пол:Муж

Стаж: 3 года 10 месяцев

Сообщений: 530

Россия
Рейтинг

post 12-Фев-2014 22:27 (спустя 9 часов) [-]0[+]

[Цитировать] 

Hi-Fi:Quadral Quintas 6000 5.0 Black + Yamaha RX-v571 Black + Dune HD Duo + 3D LED Samsung UE46 ES8000S судя по этому, и тому какие релизы у товарища Driver хороший звук дома, а разница между встроенной акустикой и Hi-Fi системой довольно высока и идет плюсом в сторону приобретения таковой к 3D телевизорам... kolob_141

_________________
info [Профиль]  [ЛС] 

POMEPO

Пол: Пол:Муж

Стаж: 7 лет 2 месяца

Сообщений: 109

Россия
Рейтинг

post 13-Фев-2014 19:04 (спустя 20 часов) [-]0[+]

[Цитировать] 

maratdnb писал(а):

Hi-Fi:Quadral Quintas 6000 5.0 Black + Yamaha RX-v571 Black + Dune HD Duo + 3D LED Samsung UE46 ES8000S судя по этому, и тому какие релизы у товарища Driver хороший звук дома, а разница между встроенной акустикой и Hi-Fi системой довольно высока и идет плюсом в сторону приобретения таковой к 3D телевизорам... kolob_141
Только телек не ахти kolob_121 kolob_108 kolob_113

_________________
Арифметика любви - это „белый″ в пакетиках...
info [Профиль]  [ЛС] 

nedis

Стаж: 7 лет 2 месяца

Сообщений: 72

Рейтинг

post 14-Фев-2014 00:31 (спустя 5 часов) [-]1[+]

[Цитировать] 

кто подскажет, смотрел я этот фильм в БД3Д, что на телеке, что на проекторе вылетов нет,глубина присутствует
стереорежим в карте включен!

или нужно вертик.горизонтальные пары качать?

посмотрел вертик. горизонт пары эффект такой же((
глубина есть , вылетов нет
только на демо роликах, которые в магазинах крутят есть вылеты)
info [Профиль]  [ЛС] 

Seretas

Пол: Пол:Муж

Стаж: 7 лет 8 месяцев

Сообщений: 655

СССР
Рейтинг

post 23-Фев-2014 14:26 (спустя 9 дней) [-]0[+]

[Цитировать] 

на встроенных в телики плеерах не пойдёт?
info [Профиль]  [ЛС] 

Seenoevil

Пол: Пол:Муж

Стаж: 4 года 4 месяца

Сообщений: 32

Рейтинг

post 01-Апр-2014 19:56 (спустя 1 месяц 6 дней) [-]0[+]

[Цитировать] 

исправь

В главных ролях:
Сандра Буллок
Джордж Клуни
Эд Харрис
Орто Игнатиуссен
Фалдут Шарма
Эми Уоррен
Башер Саваж
info [Профиль]  [ЛС] 

post 07-Апр-2014 00:01 (спустя 5 дней) [-]0[+]

Топик был перенесен из форума 3D Новинки в форум 3D

BZzz
 
Показать сообщения:    
Ответить на тему

Текущее время: 11-Дек 06:18

Часовой пояс: GMT + 4



Вы не можете начинать темы
Вы не можете отвечать на сообщения
Вы не можете редактировать свои сообщения
Вы не можете удалять свои сообщения
Вы не можете голосовать в опросах
Вы не можете прикреплять файлы к сообщениям
Вы не можете скачивать файлы