Ошибка

КВН 2013. Высшая лига. Музыкальный фестиваль "Голосящий КиВиН" [2013 г., ТВ-шоу / юмор, SATRip]

Ответить на тему
 
Автор Сообщение

Alex Ander

Пол: Пол:Муж

Стаж: 7 лет 5 месяцев

Сообщений: 2379

СССР
Рейтинг

post 08-Фев-2014 10:52 0[+]

[Цитировать] 

КВН 2013. Высшая лига. Музыкальный фестиваль "Голосящий КиВиН"

Год выпуска: 2013
Страна: Россия
Жанр: ТВ-шоу / юмор
Продолжительность: 01:26:33 + 01:15:10

Описание:
    Лучшие команды КВН встретятся на сцене Юрмалы в жаркой, бескомпромиссной, но веселой и искрометной борьбе за главные призы музыкального фестиваля "Голосящий КиВиН"! Самый музыкальный из всех юмористических и самый юмористический из всех музыкальных конкурс подарит зрителям отличное настроение, ведь когда в одном месте собирается столько любителей пошутить, по-другому и быть не может! Оценивать номера будут зрители и члены жюри, среди которых: Геннадий Хазанов, Лариса Долина, Владислав Третьяк, Игорь Верник, Валерий Сюткин, Юлий Гусман. Среди участников фестиваля – "Триод и Диод" (Смоленск), "Лас-Вегас", (Энгельс), "Спарта-СВ" (Астана), Сборная Дагестана (Махачкала), "Плохая компания" (сборная Красноярского края), "Одесские мансы" (Одесса), Сборная РУДН (Москва), "Дежа Вю" (сборная Якутии), Сборная Камызякского края по КВНу (Астраханская область), "Союз" (Тюменская область), "Днепр", (сборная Днепропетровской области), "Парапапарам", (МГИМО, Москва), "ГородЪ ПятигорскЪ" (сборная Пятигорска). Все они сразятся за малые и большие КиВиНы - главные наградами фестиваля. Их всего семь: три малых, три больших и Президентский КиВиН.


Качество: SATRip
Формат: AVI
Видео кодек: XviD
Аудио кодек: MP3
Видео: 720x400 (16:9) 25.000 fps 1 850 Kbps, 0.250 bit/pixel
Аудио: 48000Hz, 2 channels, 192 Кбит/сек
General
Complete name : ... \! КВН\! КиВиН\КВН 2013. Музыкальный фестиваль Голосящий КиВиН\01 - Перевая часть КВН 2013. Музыкальный фестиваль Голосящий КиВиН (MYDIMKA).avi
Format : AVI
Format/Info : Audio Video Interleave
File size : 1.24 GiB
Duration : 1h 26mn
Overall bit rate : 2 047 Kbps
Writing application : VirtualDubMod 1.5.10.3 | www.virtualdub-fr.org || (build 2550/release)
Writing library : VirtualDubMod build 2550/release

Video
ID : 0
Format : MPEG-4 Visual
Format profile : Advanced Simple@L5
Format settings, BVOP : 2
Format settings, QPel : No
Format settings, GMC : No warppoints
Format settings, Matrix : Default (H.263)
Codec ID : XVID
Codec ID/Hint : XviD
Duration : 1h 26mn
Bit rate : 1 845 Kbps
Width : 720 pixels
Height : 400 pixels
Display aspect ratio : 16:9
Frame rate : 25.000 fps
Color space : YUV
Chroma subsampling : 4:2:0
Bit depth : 8 bits
Scan type : Progressive
Compression mode : Lossy
Bits/(Pixel*Frame) : 0.256
Stream size : 1.12 GiB (90%)
Writing library : XviD 1.2.1 (UTC 2008-12-04)

Audio
ID : 1
Format : MPEG Audio
Format version : Version 1
Format profile : Layer 3
Codec ID : 55
Codec ID/Hint : MP3
Duration : 1h 26mn
Bit rate mode : Constant
Bit rate : 192 Kbps
Channel(s) : 2 channels
Sampling rate : 48.0 KHz
Compression mode : Lossy
Stream size : 119 MiB (9%)
Alignment : Aligned on interleaves
Interleave, duration : 40 ms (1.00 video frame)
Interleave, preload duration : 504 ms
Writing library : LAME3.99r
Encoding settings : -m s -V 4 -q 2 -lowpass 18.6 -b 192
info [Профиль]  [ЛС] 
Показать сообщения:    
Ответить на тему

Текущее время: 08-Дек 11:58

Часовой пояс: GMT + 4



Вы не можете начинать темы
Вы не можете отвечать на сообщения
Вы не можете редактировать свои сообщения
Вы не можете удалять свои сообщения
Вы не можете голосовать в опросах
Вы не можете прикреплять файлы к сообщениям
Вы не можете скачивать файлы