Ошибка

КВН 2013. Высшая лига. Финал [2013 г., ТВ-шоу / юмор, SATRip-AVC]

Ответить на тему
 
Автор Сообщение

Alex Ander

Пол: Пол:Муж

Стаж: 7 лет 5 месяцев

Сообщений: 2379

СССР
Рейтинг

post 08-Фев-2014 10:43 2[+]

[Цитировать] 

КВН 2013. Высшая лига. Финал

Год выпуска: 2013
Страна: Россия
Жанр: ТВ-шоу / юмор
Продолжительность: 02:12:50

Описание:
    Программа "КВН" является самой долгоживущей передачей отечественного телеэкрана. Впервые выйдя в эфир 8 ноября 1961 года, она стала легендой еще черно-белого телевидения. В 1986 году "КВН" вновь появился на экране после 14-летнего перерыва и практически сразу вернул себе былую популярность.

    Сегодня телевизионная программа "КВН" - это вершина огромного айсберга, который представляет из себя Международный Союз КВН, включающий в себя более двух десятков официальных подготовительных Лиг и сотни региональных чемпионатов. Именно в этой передаче участвуют лучшие команды Клуба Веселых и Находчивых.

    Более 40 лет ведет программу Александр Васильевич Масляков - Президент международного союза КВН, человек, мнением которого дорожит каждый КВНщик.
Подробности:
    Тема сезона: "КВН уже не тот"
    Тема игры: "Олимпийский новый год"
    Приветствие: "Олимпийский фристайл"
    Финальное многоборье: личные достижения, разминка, биатлон
    СТЭМ: "Олимпийская деревня"
    Музыкальный финал: "Финишная прямая"
Команды на сцене:
    «ГородЪ ПятигорскЪ», сборная Пятигорска
    «Парапапарам», МГИМО, Москва
    Сборная Камызякского края по КВНу, Астраханская область
    «Днепр», сборная Днепропетровской области
В жюри:
    Константин Эрнст
    Валдис Пельш
    Елена Исинбаева
    Михаил Ефремов
    Александр Жуков
    Юлий Гусман


Качество: SATRip
Формат: MKV
Видео кодек: H.264
Аудио кодек: AC3
Видео: 720x400, 25 fps, ~2358 kbps avg, 0.280 bit/pixel
Аудио: 2/0 (L,R) ch, 48 kHz, ~192.00 kbps avg
General
Unique ID : 88401494288631617048244891290340563016 (0x4281822CEB31474A1468DF580AB61848)
Complete name : .... \! КВН\КВН 2013. Высшая лига\10 Финал.mkv
Format : Matroska
File size : 2.19 GiB
Duration : 2h 12mn
Overall bit rate : 2 358 Kbps
Writing application : XviD4PSP 6.0 / 54.29.105
Writing library : XviD4PSP 6.0 / 54.29.105

Video
ID : 1
Format : AVC
Format/Info : Advanced Video Codec
Format profile : High@L3.0
Format settings, CABAC : Yes
Format settings, ReFrames : 3 frames
Codec ID : V_MPEG4/ISO/AVC
Duration : 2h 12mn
Bit rate : 2 162 Kbps
Width : 720 pixels
Height : 400 pixels
Display aspect ratio : 16:9
Frame rate mode : Variable
Frame rate : 25.000 fps
Color space : YUV
Chroma subsampling : 4:2:0
Bit depth : 8 bits
Scan type : MBAFF
Bits/(Pixel*Frame) : 0.300
Stream size : 1.96 GiB (90%)
Writing library : x264 core 128 r2216M 198a7ea
Encoding settings : cabac=1 / ref=3 / deblock=1:0:0 / analyse=0x3:0x133 / me=hex / subme=7 / psy=1 / psy_rd=1.00:0.20 / mixed_ref=1 / me_range=16 / chroma_me=1 / trellis=1 / 8x8dct=1 / cqm=0 / deadzone=21,11 / fast_pskip=1 / chroma_qp_offset=-3 / threads=4 / lookahead_threads=1 / sliced_threads=0 / nr=0 / decimate=1 / interlaced=tff / bluray_compat=0 / constrained_intra=0 / bframes=3 / b_pyramid=1 / b_adapt=2 / b_bias=0 / direct=3 / weightb=1 / open_gop=0 / weightp=0 / keyint=250 / keyint_min=25 / scenecut=40 / intra_refresh=0 / rc_lookahead=40 / rc=2pass / mbtree=1 / bitrate=2162 / ratetol=1.0 / qcomp=0.60 / qpmin=10 / qpmax=51 / qpstep=4 / cplxblur=20.0 / qblur=0.5 / ip_ratio=1.40 / aq=1:1.00
Language : English

Audio
ID : 2
Format : AC-3
Format/Info : Audio Coding 3
Mode extension : CM (complete main)
Codec ID : A_AC3
Duration : 2h 12mn
Bit rate mode : Constant
Bit rate : 192 Kbps
Channel(s) : 2 channels
Channel positions : Front: L R
Sampling rate : 48.0 KHz
Bit depth : 16 bits
Compression mode : Lossy
Delay relative to video : 27ms
Stream size : 182 MiB (8%)
Language : English / Russian
info [Профиль]  [ЛС] 
Показать сообщения:    
Ответить на тему

Текущее время: 08-Дек 06:13

Часовой пояс: GMT + 4



Вы не можете начинать темы
Вы не можете отвечать на сообщения
Вы не можете редактировать свои сообщения
Вы не можете удалять свои сообщения
Вы не можете голосовать в опросах
Вы не можете прикреплять файлы к сообщениям
Вы не можете скачивать файлы