Ошибка

Михаэль Кольхаас / Michael Kohlhaas (Арно де Пальер) [2013, драма, история, HDRip]

Ответить на тему
 
Автор Сообщение

Linuxoid

Пол: Пол:Муж

Стаж: 6 лет

Сообщений: 284

Украина
Рейтинг

post 06-Фев-2014 01:16 0[+]

[Цитировать] 

Михаэль Кольхаас / Michael Kohlhaas


Год выпуска: 2013
Страна: Франция , Германия
Жанр: драма, история
Продолжительность: 02:01:26
Перевод: Любительский (двухголосый закадровый)

Режиссер: Арно де Пальер
Сценарий: Кристель Бертева, Арно де Пальер, Генрих фон Клейст
Продюсер: Серж Лалу, Реми Бура, Гуннар Дедио, ...
Оператор: Адриэн Дебакер, Жанна Лапуари
Композитор : Мартин Вилер, The Witches
Художник: Ян Арло, Анина Динер
Монтаж: Санди Бомпар, Арно де Пальер

В ролях: Мадс Миккельсен / Mads Mikkelsen (Michael Kohlhaas), Мелюсин Маянс / Melusine Mayance (Lisbeth), Дэльфин Шийо / Delphine Chuillot (Judith), Давид Кросс / David Kross (The Preacher), Бруно Ганц / Bruno Ganz (The Governor), Дени Лаван / Denis Lavant (The Theologist)


Описание: XVI век. В Севеннах счастливо живет богатый торговец лошадьми Михаэль Кольхаас со своим семейством. Но став жертвой несправедливости, этот благочестивый и честный человек собирает армию и принимается грабить города, чтобы восстановить свои попранные права.
Раздача от:
Качество: HDRip
Формат: MPEG-4
Видео кодек: AVC
Аудио кодек: AAC LC
Видео: 480x272 (16:9), 23.976 fps, AVC, 640 Kbps
Аудио: Аудио #1: AAC LC, 128 Kbps, 44.1 KHz, 2 ch

Код:

General
Complete name                    : Michael.Kohlhaas.2013.HDRip.mp4
Format                           : MPEG-4
Format profile                   : Base Media
Codec ID                         : isom
File size                        : 670 MiB
Duration                         : 2h 1mn
Overall bit rate                 : 772 Kbps
Encoded date                     : UTC 2014-02-04 20:55:02
Tagged date                      : UTC 2014-02-04 20:55:02

Video
ID                               : 1
Format                           : AVC
Format/Info                      : Advanced Video Codec
Format profile                   : Main@L3.0
Format settings, CABAC           : Yes
Format settings, ReFrames        : 2 frames
Format settings, GOP             : M=4, N=14
Codec ID                         : avc1
Codec ID/Info                    : Advanced Video Coding
Duration                         : 2h 1mn
Bit rate mode                    : Variable
Bit rate                         : 640 Kbps
Maximum bit rate                 : 3 618 Kbps
Width                            : 480 pixels
Height                           : 272 pixels
Display aspect ratio             : 16:9
Frame rate mode                  : Constant
Frame rate                       : 23.976 fps
Color space                      : YUV
Chroma subsampling               : 4:2:0
Bit depth                        : 8 bits
Scan type                        : Progressive
Bits/(Pixel*Frame)               : 0.204
Stream size                      : 556 MiB (83%)
Writing library                  : x264 core 65 r999kMod cc51047
Encoding settings                : cabac=1 / ref=2 / deblock=1:0:0 / analyse=0x1:0x131 / me=umh / subme=6 / psy_rd=1.0:0.0 / mixed_ref=1 / me_range=16 / chroma_me=1 / trellis=1 / 8x8dct=0 / cqm=0 / deadzone=21,11 / chroma_qp_offset=-2 / threads=4 / thread_queue=4 / nr=0 / decimate=1 / mbaff=0 / bframes=3 / b_pyramid=0 / b_adapt=1 / b_bias=0 / direct=3 / wpredb=1 / keyint=250 / keyint_min=25 / scenecut=40(pre) / rc=2pass / bitrate=640 / ratetol=1.0 / qcomp=0.60 / qpmin=10 / qpmax=51 / qpstep=4 / cplxblur=20.0 / qblur=0.5 / ip_ratio=1.40 / pb_ratio=1.30 / aq=1:1.00
Encoded date                     : UTC 2014-02-04 20:55:02
Tagged date                      : UTC 2014-02-04 21:01:28

Audio
ID                               : 2
Format                           : AAC
Format/Info                      : Advanced Audio Codec
Format version                   : Version 4
Format profile                   : LC
Format settings, SBR             : No
Codec ID                         : 40
Duration                         : 2h 1mn
Bit rate mode                    : Variable
Bit rate                         : 128 Kbps
Maximum bit rate                 : 160 Kbps
Channel(s)                       : 2 channels
Channel positions                : Front: L R
Sampling rate                    : 44.1 KHz
Stream size                      : 111 MiB (17%)
Encoded date                     : UTC 2014-02-04 21:01:07
Tagged date                      : UTC 2014-02-04 21:01:28
info [Профиль]  [ЛС] 

DarkDragon1987

Пол: Пол:Муж

Стаж: 5 лет 4 месяца

Сообщений: 283

Россия
Рейтинг

post 19-Дек-2014 16:40 (спустя 10 месяцев 13 дней) [-]-2[+]

[Цитировать] 

Торговец грабит города, что бы восстановить свои права. Genius!!!!
info [Профиль]  [ЛС] 

Alter

Пол: Пол:Муж

Стаж: 5 лет 5 месяцев

Сообщений: 105

Россия
Рейтинг

post 24-Май-2015 07:10 (спустя 5 месяцев 4 дня) [-]0[+]

[Цитировать] 

На Геральта из Ведьмака смахивает)
info [Профиль]  [ЛС] 
Показать сообщения:    
Ответить на тему

Текущее время: 08-Дек 12:01

Часовой пояс: GMT + 4



Вы не можете начинать темы
Вы не можете отвечать на сообщения
Вы не можете редактировать свои сообщения
Вы не можете удалять свои сообщения
Вы не можете голосовать в опросах
Вы не можете прикреплять файлы к сообщениям
Вы не можете скачивать файлы