Ошибка

Капитан Филлипс / Captain Phillips (Пол Гринграсс) [2013 г., триллер, драма, криминал, боевик, BDRemux 1080p]

Ответить на тему
 
Автор Сообщение

Basketballman

Пол: Пол:Муж

Стаж: 7 лет 1 месяц

Сообщений: 280

Россия
Рейтинг

post 05-Фев-2014 10:29 1[+]

[Цитировать] 

Капитан Филлипс / Captain Phillips

Год выпуска: 2013
Страна: США
Жанр: триллер, драма, криминал, боевик
Продолжительность: 02:14:04
Перевод: профессиональный (полное дублирование) [лицензия]
Субтитры: русские, английские
Режиссер:
  • Пол Гринграсс
В ролях:
  • Том Хэнкс, Кэтрин Кинер, Макс Мартини, Джон Магаро, Крис Малки, Дэвид Уоршофски, Юл Васкез, Майкл Чернус, Кори Джонсон, Мария Дицциа

Описание: В начале апреля 2009 года, близ берегов Африки, несколько сомалийских пиратов атакуют и пытаются захватить массивный контейнеровоз MV Maersk Alabama. Команда корабля активно сопротивляется и в конце концов не даёт взять себя в плен. Захватчики вынуждены ретироваться и покинуть судно на небольшом катере, прихватив с собой немолодого капитана Ричарда Филлипса…


Качество: BDRemux 1080p
Формат: MKV
Видео кодек: MPEG-4
Аудио кодек: AC3, DTS-HD
Видео: 1920x1080, 23.976 fps, 24.9 Mбит/с
Аудио 1: Russian: AC3, 6 ch, 640 Kbps
Аудио 2: Ukrainian: AC3, 6 ch, 640 Kbps
Аудио 3: English: DTS-HD MA, 6 ch, 2779 Kbps
Аудио 4: English: AC3, 2 ch, 192 Kbps
Субтитры: SRT

Sample
General
Unique ID : 174114226037696424930411113178767058888 (0x82FD2E1F6C5A0CA7902E789C992C67C8)
Complete name : D:\Кино\Captain Phillips BDRemux.mkv
Format : Matroska
Format version : Version 2
File size : 27.3 GiB
Duration : 2h 14mn
Overall bit rate mode : Variable
Overall bit rate : 29.2 Mbps
Movie name : Captain.Phillips.2013.BluRay.1080p.DTS.x264-CHD
Encoded date : UTC 2014-02-04 13:57:45
Writing application : mkvmerge v6.7.0 ('Back to the Ground') 32bit built on Jan 8 2014 15:03:17
Writing library : libebml v1.3.0 + libmatroska v1.4.1

Video
ID : 1
Format : AVC
Format/Info : Advanced Video Codec
Format profile : High@L4.1
Format settings, CABAC : Yes
Format settings, ReFrames : 2 frames
Codec ID : V_MPEG4/ISO/AVC
Duration : 2h 14mn
Bit rate mode : Variable
Width : 1 920 pixels
Height : 1 080 pixels
Display aspect ratio : 16:9
Frame rate mode : Constant
Frame rate : 23.976 fps
Color space : YUV
Chroma subsampling : 4:2:0
Bit depth : 8 bits
Scan type : Progressive
Default : Yes
Forced : No

Audio #1
ID : 2
Format : AC-3
Format/Info : Audio Coding 3
Mode extension : CM (complete main)
Format settings, Endianness : Big
Codec ID : A_AC3
Duration : 2h 14mn
Bit rate mode : Constant
Bit rate : 640 Kbps
Channel count : 6 channels
Channel positions : Front: L C R, Side: L R, LFE
Sampling rate : 48.0 KHz
Bit depth : 16 bits
Compression mode : Lossy
Stream size : 614 MiB (2%)
Title : AC3 5.1 @ 640 kbps - DUB, Blu-ray CEE
Language : Russian
Default : Yes
Forced : No

Audio #2
ID : 3
Format : AC-3
Format/Info : Audio Coding 3
Mode extension : CM (complete main)
Format settings, Endianness : Big
Codec ID : A_AC3
Duration : 2h 14mn
Bit rate mode : Constant
Bit rate : 640 Kbps
Channel count : 6 channels
Channel positions : Front: L C R, Side: L R, LFE
Sampling rate : 48.0 KHz
Bit depth : 16 bits
Compression mode : Lossy
Stream size : 614 MiB (2%)
Title : AC3 5.1 @ 640 kbps - DUB, Blu-ray CEE
Language : Ukrainian
Default : No
Forced : No

Audio #3
ID : 4
Format : DTS
Format/Info : Digital Theater Systems
Format profile : MA / Core
Mode : 16
Format settings, Endianness : Big
Codec ID : A_DTS
Duration : 2h 14mn
Bit rate mode : Variable
Bit rate : Unknown / 1 509 Kbps
Channel count : 6 channels
Channel positions : Front: L C R, Side: L R, LFE
Sampling rate : 48.0 KHz
Bit depth : 24 bits
Compression mode : Lossless / Lossy
Language : English
Default : No
Forced : No

Audio #4
ID : 5
Format : AC-3
Format/Info : Audio Coding 3
Format profile : Dolby Digital
Mode extension : CM (complete main)
Format settings, Endianness : Big
Codec ID : A_AC3
Duration : 2h 14mn
Bit rate mode : Constant
Bit rate : 192 Kbps
Channel count : 2 channels
Channel positions : Front: L R
Sampling rate : 48.0 KHz
Bit depth : 16 bits
Compression mode : Lossy
Stream size : 184 MiB (1%)
Language : English
Default : No
Forced : No

Text #1
ID : 6
Format : UTF-8
Codec ID : S_TEXT/UTF8
Codec ID/Info : UTF-8 Plain Text
Title : Forced
Language : Russian
Default : Yes
Forced : No

Text #2
ID : 7
Format : UTF-8
Codec ID : S_TEXT/UTF8
Codec ID/Info : UTF-8 Plain Text
Language : Russian
Default : No
Forced : No

Text #3
ID : 8
Format : UTF-8
Codec ID : S_TEXT/UTF8
Codec ID/Info : UTF-8 Plain Text
Title : Forced
Language : English
Default : No
Forced : No

Text #4
ID : 9
Format : UTF-8
Codec ID : S_TEXT/UTF8
Codec ID/Info : UTF-8 Plain Text
Title : English (Full)
Language : English
Default : No
Forced : No

Text #5
ID : 10
Format : UTF-8
Codec ID : S_TEXT/UTF8
Codec ID/Info : UTF-8 Plain Text
Title : English (SDH)
Language : English
Default : No
Forced : No

Menu
00:00:00.000 : en:00:00:00.000
00:09:12.927 : en:00:09:12.927
00:15:30.138 : en:00:15:30.138
00:22:48.742 : en:00:22:48.742
00:30:11.435 : en:00:30:11.435
00:39:38.876 : en:00:39:38.876
00:48:01.003 : en:00:48:01.003
00:58:24.751 : en:00:58:24.751
01:04:36.539 : en:01:04:36.539
01:13:02.837 : en:01:13:02.837
01:19:14.249 : en:01:19:14.249
01:25:41.261 : en:01:25:41.261
01:34:14.023 : en:01:34:14.023
01:41:44.598 : en:01:41:44.598
01:51:32.102 : en:01:51:32.102
02:02:38.851 : en:02:02:38.851
info [Профиль]  [ЛС] 

lampard960

Пол: Пол:Муж

Стаж: 4 года 11 месяцев

Сообщений: 619

Ангилья
Рейтинг

post 05-Фев-2014 21:55 (спустя 11 часов) [-]1[+]

[Цитировать] 

очень крутой фильм.

_________________
info [Профиль]  [ЛС] 

Psychoman88

Пол: Пол:Муж

Стаж: 3 года 8 месяцев

Сообщений: 130

Рейтинг

post 05-Фев-2014 22:05 (спустя 9 минут) [-]0[+]

[Цитировать] 

Пару морпехов с винтовками и все эти угольки в лодках пошли бы на корм акул.
Том Хенкс молодчина образ капитана судя по истории выдержал.
info [Профиль]  [ЛС] 

post 24-Мар-2014 00:58 (спустя 1 месяц 18 дней) [-]0[+]

Топик был перенесен из форума DVD, HD DVD, Blu-ray, HD Rips, Web-DL в форум Зарубежное кино | HD DVD и Blu-ray

BZzz
 
Показать сообщения:    
Ответить на тему

Текущее время: 06-Дек 14:16

Часовой пояс: GMT + 4



Вы не можете начинать темы
Вы не можете отвечать на сообщения
Вы не можете редактировать свои сообщения
Вы не можете удалять свои сообщения
Вы не можете голосовать в опросах
Вы не можете прикреплять файлы к сообщениям
Вы не можете скачивать файлы