Ошибка

Игра Эндера / Ender's Game (Гэвин Худ) [2013, фантастика, боевик, приключения, BDRip]

Ответить на тему
 
Автор Сообщение

Linuxoid

Пол: Пол:Муж

Стаж: 6 лет

Сообщений: 284

Украина
Рейтинг

post 03-Фев-2014 00:12 0[+]

[Цитировать] 

Игра Эндера / Ender's Game
«Это не игра»


Год выпуска: 2013
Страна: США
Жанр: фантастика, боевик, приключения
Продолжительность: 01:53:48
Перевод: Профессиональный (дублированный)

Режиссер: Гэвин Худ
Сценарий: Гэвин Худ, Орсон Скотт Кард
Продюсер: Орсон Скотт Кард, Роберт Чартофф, Дэвид Коутсворт, ...
Оператор: Доналд МакЭлпайн
Композитор : Стив Яблонски
Художник: Шон Хаворт, Бен Проктер, Грег Берри, ...
Монтаж: Ли Смит, Зэк Стэнберг

В ролях: Эйса Баттерфилд / Asa Butterfield (Ender Wiggin), Харрисон Форд / Harrison Ford (Colonel Graff), Бен Кингсли / Ben Kingsley (Mazer Rackham), Виола Дэвис / Viola Davis (Major Gwen Anderson), Хейли Стайнфелд / Hailee Steinfeld (Petra Arkanian), Эбигейл Бреслин / Abigail Breslin (Valentine Wiggin)


Описание: Действие происходит в 2135 году. Человечество пережило два вторжения инопланетной расы «жукеров», лишь чудом уцелев, и готовится к очередному вторжению.Для поиска пилотов и военачальников, способных принести Земле победу, создаётся военная школа, в которую отправляют самых талантливых детей. Среди этих детей Эндрю (Эндер) Виггин, будущий полководец Международного флота Земли и единственная надежда человечества на спасение.

Бюджет: $110 000 000
Сборы в США: $61 737 191
Сборы в мире: + $50 494 282 = $112 231 473 сборы
Сборы в России: $2 572 068
Зрители: Китай 3.3 млн , Мексика 646.3 тыс. , Корея Южная 642.8 тыс.
Премьера (мир): 24 октября 2013, ...
Премьера (РФ): 31 октября 2013, «West»
Рейтинг MPAA: Детям до 13 лет просмотр не желателен
Раздача от:
Качество: BDRip
Формат: MPEG-4
Видео кодек: AVC
Аудио кодек: AAC LC
Видео: 480x200 (2.40:1), 23.976 fps, AVC, 640 Kbps
Аудио: Аудио #1: AAC LC, 129 Kbps, 48.0 KHz, 2 ch
· Фильм снят по мотивам романа Орсона Скотта Карда «Игра Эндера» (Ender`s Game, 1985).

· С момента издания книги в 1985 году Орсон Скотт Кард получал множество предложений от голливудских киностудий по ее экранизации, но он постоянно им отказывал, чтобы сохранить целостность своего видения этой истории. Когда Кард стал соучредителем студии Fresco Pictures в 1996 году, он решил сам написать сценарий фильма, а также стать его продюсером.

· Город, изображенный на агитационных плакатах, — это Гонконг.

· Работы над различными версиями киносценария по «Игре Эндера» шли приблизительно с начала 2000 годов. Последняя версия сценария, написанная самим автором романа, была закончена в начале 2009 года.

· В корпусе морской пехоты США книга «Игра Эндера» присутствует в списке рекомендуемой офицерам литературы с пометкой, что в этой книге есть «уроки по методике обучения, лидерству и этике».

· Для того чтобы самостоятельно выполнять акробатические упражнения на канате, актеры на протяжении месяца тренировались вместе с участниками Cirque du Soleil.

· Продюсеры фильма консультировались с генеральным директором компании SpaceX Элоном Маском по вопросам технологий космических шаттлов будущего, изображенных в фильме.

· Показанное в фильме помещение для симуляции сражений в диаметре охватывает три футбольных поля.

· Для достижения эффекта невесомости в помещении для симуляции сражений были придуманы две установки. Первая — «рука-леденец», которая использовалась как противовес и давала полный диапазон движения. Вторая — «человеческий кран». По сути, он похож на первую установку, но с использованием воздушных шайб, за счет которых достигалось ощущение, что человек плавает в воздухе.

· Эйса Баттерфилд, Хейли Стайнфелд и несколько других актеров, игравших кадетов военной школы, до начала съемок фильма посетили космический лагерь для подготовки к съемкам сцен с невесомостью.

· Режиссер Гэвин Худ впервые прочитал книгу «Игра Эндера» в достаточно зрелом возрасте. На тот момент он уже отслужил в армии, будучи призванным в 17 лет.

· Съемки фильма проходили в комплексе НАСА в Новом Орлеане, штат Луизиана.

· В мае 2013 года группа сторонников ЛГБТ запустила кампанию против фильма в связи с выраженными в нем мнениями и действиями, предпринимаемыми автором романа Орсоном Скоттом Кардом, который также является продюсером фильма. Студия и несколько человек, непосредственно занимающихся созданием фильма, включая самого Карда, позже опубликовали заявление по этому поводу. Все, кроме самого Карда, сказали, что они не поддерживают взгляды Карда, и призвали людей в любом случае посмотреть фильм.

· Некоторый реквизит для фильма был создан при помощи 3D-принтеров, в том числе и модель корабля Mazer Rackham, которую можно заметить в жилище Эндера.

· Компания Digital Domain, которая занималась спецэффектами этого фильма, предварительно сделала деморолик, демонстрирующий помещение для симуляции сражений, что позволило продюсерам без особых затруднений привлечь необходимые фильму инвестиции.

· Каждое из укрытий от лазерного огня команды противника в сценах симуляции боев весило почти по 6000 кг.

· В начале 2000-х Джейк Ллойд был одним из главных претендентов на роль Эндера. Так совпало, что в то же время Ллойд снялся для рекламной кампании по содействию библиотеке, и там он был изображен читающим книгу «Игра Эндера».

Код:

General
Complete name                    : Igra.Endera.2013.D.BDRip.mp4
Format                           : MPEG-4
Format profile                   : Base Media
Codec ID                         : isom
File size                        : 629 MiB
Duration                         : 1h 53mn
Overall bit rate                 : 772 Kbps
Encoded date                     : UTC 2014-02-01 19:01:23
Tagged date                      : UTC 2014-02-01 19:01:23

Video
ID                               : 1
Format                           : AVC
Format/Info                      : Advanced Video Codec
Format profile                   : Main@L3.0
Format settings, CABAC           : Yes
Format settings, ReFrames        : 2 frames
Codec ID                         : avc1
Codec ID/Info                    : Advanced Video Coding
Duration                         : 1h 53mn
Bit rate mode                    : Variable
Bit rate                         : 640 Kbps
Maximum bit rate                 : 3 646 Kbps
Width                            : 480 pixels
Height                           : 200 pixels
Display aspect ratio             : 2.40:1
Frame rate mode                  : Constant
Frame rate                       : 23.976 fps
Color space                      : YUV
Chroma subsampling               : 4:2:0
Bit depth                        : 8 bits
Scan type                        : Progressive
Bits/(Pixel*Frame)               : 0.278
Stream size                      : 521 MiB (83%)
Writing library                  : x264 core 65 r999kMod cc51047
Encoding settings                : cabac=1 / ref=2 / deblock=1:0:0 / analyse=0x1:0x131 / me=umh / subme=6 / psy_rd=1.0:0.0 / mixed_ref=1 / me_range=16 / chroma_me=1 / trellis=1 / 8x8dct=0 / cqm=0 / deadzone=21,11 / chroma_qp_offset=-2 / threads=4 / thread_queue=4 / nr=0 / decimate=1 / mbaff=0 / bframes=3 / b_pyramid=0 / b_adapt=1 / b_bias=0 / direct=3 / wpredb=1 / keyint=250 / keyint_min=25 / scenecut=40(pre) / rc=2pass / bitrate=640 / ratetol=1.0 / qcomp=0.60 / qpmin=10 / qpmax=51 / qpstep=4 / cplxblur=20.0 / qblur=0.5 / ip_ratio=1.40 / pb_ratio=1.30 / aq=1:1.00
Encoded date                     : UTC 2014-02-01 19:01:23
Tagged date                      : UTC 2014-02-01 19:01:31

Audio
ID                               : 2
Format                           : AAC
Format/Info                      : Advanced Audio Codec
Format version                   : Version 4
Format profile                   : LC
Format settings, SBR             : No
Codec ID                         : 40
Duration                         : 1h 53mn
Bit rate mode                    : Variable
Bit rate                         : 129 Kbps
Maximum bit rate                 : 177 Kbps
Channel(s)                       : 2 channels
Channel positions                : Front: L R
Sampling rate                    : 48.0 KHz
Stream size                      : 105 MiB (17%)
Encoded date                     : UTC 2014-02-01 19:01:30
Tagged date                      : UTC 2014-02-01 19:01:31
info [Профиль]  [ЛС] 

HellMaine

Пол: Пол:Муж

Стаж: 5 лет 1 месяц

Сообщений: 22

Украина
Рейтинг

post 08-Фев-2014 19:03 (спустя 5 дней) [-]0[+]

[Цитировать] 

ау ребят, где все ?)

_________________
я мзду не беру, мне за державу обидно!
info [Профиль]  [ЛС] 

xLeatherx

Пол: Пол:Муж

Стаж: 7 лет 5 месяцев

Сообщений: 113

СССР
Рейтинг

post 07-Мар-2014 22:24 (спустя 27 дней) [-]0[+]

[Цитировать] 

Ну и хрень..."Гарри Поттер" в космосе, от Уве Болла"
info [Профиль]  [ЛС] 
Показать сообщения:    
Ответить на тему

Текущее время: 07-Дек 12:41

Часовой пояс: GMT + 4



Вы не можете начинать темы
Вы не можете отвечать на сообщения
Вы не можете редактировать свои сообщения
Вы не можете удалять свои сообщения
Вы не можете голосовать в опросах
Вы не можете прикреплять файлы к сообщениям
Вы не можете скачивать файлы