Ошибка

Телекинез / Carrie [Theatrical Cut] (Кимберли Пирс) [2013, триллер, ужасы, драма, WEB-DLRip]

Ответить на тему
 
Автор Сообщение

Linuxoid

Пол: Пол:Муж

Стаж: 6 лет

Сообщений: 284

Украина
Рейтинг

post 02-Фев-2014 15:24 0[+]

[Цитировать] 

Телекинез / Carrie
«Ты ещё узнаешь её имя»


Год выпуска: 2013
Страна: США
Жанр: триллер, ужасы, драма
Продолжительность: 01:39:43
Перевод: Профессиональный (дублированный)

Режиссер: Кимберли Пирс
Сценарий: Лоуренс Д. Коэн, Роберто Агирре-Сакаса, Стивен Кинг
Продюсер: Дж. Майлз Дэйл, Кевин Мишер
Оператор: Стив Йедлин
Композитор : Марко Белтрами
Художник: Кэрол Спайэр, Найджел Чёрчер, Луис Сикейра
Монтаж: Ли Перси, Нэнси Ричардсон

В ролях: Хлоя Грейс Морец / Chloe Grace Moretz (Carrie White), Джулианна Мур / Julianne Moore (Margaret White), Джуди Грир / Judy Greer (Ms. Desjardin), Портия Даблдэй / Portia Doubleday (Chris Hargensen), Габриэлла Уайлд / Gabriella Wilde (Sue Snell), Алекс Расселл / Alex Russell (Billy Nolan)


Описание: Невзрачная старшеклассница по имени Кэрри с рождения обладает способностями телекинеза. Давление со стороны фанатично религиозной мамочки и постоянные издевки сверстников лишь способствует развитию ее сверхъестественных способностей. На выпускном одноклассники решают жестоко подшутить над ней, что приводит к фатальным последствиям.

Бюджет: $30 000 000
Сборы в США: $35 266 619
Сборы в мире: + $48 762 638 = $84 029 257 сборы
Сборы в России: $8 889 574
Зрители: Россия 1.36 млн , Мексика 886.8 тыс. , Бразилия 572.3 тыс.
Премьера (мир): 7 октября 2013, ...
Премьера (РФ): 14 ноября 2013, «WDSSPR»
Релиз на DVD: 13 февраля 2014, «Двадцатый Век Фокс СНГ», ...
Релиз на Blu-Ray: 13 февраля 2014, «Двадцатый Век Фокс СНГ», ...
Рейтинг MPAA: Лицам до 17 лет обязательно присутствие взрослого

Качество: WEB-DLRip
Формат: MPEG-4
Видео кодек: AVC
Аудио кодек: AAC LC
Видео: 480x208 (2.35:1), 23.976 fps, AVC, 385 Kbps
Аудио: Аудио #1: Russian, AAC LC, 128 Kbps, 48.0 KHz, 2 ch |Дубляж, iTunes Russia|
Аудио #2: Ukrainian, AAC LC, 128 Kbps, 48.0 KHz, 2 ch |Дубляж, iTunes Russia|
Аудио #3: English, AAC LC, 128 Kbps, 48.0 KHz, 2 ch
· Фильм снят по мотивам романа Стивена Кинга «Кэрри» (Carrie, 1974).

· Стивен Кинг предлагал взять на главную роль Линдси Лохан.

· Планировалось, что роль Маргарет Уайт сыграет Джоди Фостер.

· Шейлин Вудли отказалась от роли Кэрри Уайт. Хейли Беннетт, Дакота Фаннинг, Эмили Браунинг, Лили Коллинз и Белла Хиткот проходили прослушивание. В конечном итоге, главную роль получила Хлоя Грейс Морец.

· Ивана Бакеро должна была исполнять роль Крис Харгенсен, но её заменила Портия Даблдэй.

· Слоган «Ты еще узнаешь ее имя» является отсылкой к последним словам песни из бродвейского мюзикла «Кэрри» («Когда-нибудь кто-то будет знать мое имя!»).

· Эта история могла никогда не увидеть свет, если бы жена Кинга не спасла один из ранних черновиков книги из мусорного ведра. Кинг очень сомневался в том, что история будет достаточно сильной и эмоциональной. Сам Кинг в своих мемуарах вспоминал: «Она вынула страницы из мусорной корзины, стряхнула сигаретный пепел со смятых листов бумаги, разровняла их и села читать. Затем она сказала, что хочет, чтобы я написал продолжение истории. Она хотела знать, чем все закончится».

· Съемки проходили в Торонто летом 2012 года.

· Стихотворение, которое Кэрри читает на уроке английского, — это отрывок из поэмы Джона Мильтона «Самсон-борец» (1671).

· Это первая экранизация, в которой актер, исполняющий роль Кэрри, на самом деле является подростком. В период съемок Хлое Грейс Морец было 15 лет. В то время как Сисси Спейсек и Анджеле Беттис, когда они исполняли эту роль, было 26 и 28 лет соответственно.

· Среди имён в списке кандидатов на «Короля» и «Королеву» бала есть имя Брайана Крэнстона, известного по роли в сериале «Во все тяжкие» (2008-2013). Стивен Кинг назвал это шоу «лучшим сюжетом, когда-либо показанным на ТВ».

· Уничтожение дома, на который с неба падают камни, было сделано в цифровом виде. Для этого реально построенную модель дома просканировали лазерным локатором, затем сделали 6500 фотографий и совместили их.

· Хотя в книге дважды упоминается, что Сью беременна, только в этой адаптации впервые отразили этот факт.

▣ Страница фильма оформлена с помощью программы MegaRelizer

Код:

General
Complete name                    : Carrie.2013.720p.WEB-DL.Rus.Ukr.Eng.HDCLUB.mp4
Format                           : MPEG-4
Format profile                   : Base Media
Codec ID                         : isom
File size                        : 556 MiB
Duration                         : 1h 39mn
Overall bit rate                 : 780 Kbps
Movie name                       : Carrie (2013) - Release for HDCLUB
Encoded date                     : UTC 2014-01-28 09:53:26
Tagged date                      : UTC 2014-01-28 09:53:26
Writing application              : XviD4PSP 6.0 / 54.29.105

Video
ID                               : 1
Format                           : AVC
Format/Info                      : Advanced Video Codec
Format profile                   : Main@L3.0
Format settings, CABAC           : Yes
Format settings, ReFrames        : 2 frames
Codec ID                         : avc1
Codec ID/Info                    : Advanced Video Coding
Duration                         : 1h 39mn
Bit rate mode                    : Variable
Bit rate                         : 385 Kbps
Width                            : 480 pixels
Height                           : 208 pixels
Display aspect ratio             : 2.35:1
Original display aspect ratio    : 2.35:1
Frame rate mode                  : Constant
Frame rate                       : 23.976 fps
Color space                      : YUV
Chroma subsampling               : 4:2:0
Bit depth                        : 8 bits
Scan type                        : Progressive
Bits/(Pixel*Frame)               : 0.161
Stream size                      : 275 MiB (49%)
Writing library                  : x264 core 128 r2216M 198a7ea
Encoding settings                : cabac=1 / ref=1 / deblock=1:0:0 / analyse=0x1:0x131 / me=hex / subme=7 / psy=1 / psy_rd=1.00:0.20 / mixed_ref=0 / me_range=16 / chroma_me=1 / trellis=1 / 8x8dct=0 / cqm=0 / deadzone=21,11 / fast_pskip=1 / chroma_qp_offset=-3 / threads=4 / lookahead_threads=1 / sliced_threads=0 / nr=0 / decimate=1 / interlaced=0 / bluray_compat=0 / constrained_intra=0 / bframes=3 / b_pyramid=0 / b_adapt=2 / b_bias=0 / direct=3 / weightb=1 / open_gop=0 / weightp=2 / keyint=230 / keyint_min=23 / scenecut=40 / intra_refresh=0 / rc_lookahead=40 / rc=crf / mbtree=1 / crf=19.0 / qcomp=0.60 / qpmin=10 / qpmax=51 / qpstep=4 / vbv_maxrate=2500 / vbv_bufsize=2000 / crf_max=30.0 / nal_hrd=none / ip_ratio=1.40 / aq=1:1.00
Language                         : English
Encoded date                     : UTC 2014-01-28 09:53:26
Tagged date                      : UTC 2014-01-28 09:53:26

Audio #1
ID                               : 2
Format                           : AAC
Format/Info                      : Advanced Audio Codec
Format version                   : Version 4
Format profile                   : LC
Format settings, SBR             : No
Codec ID                         : 40
Duration                         : 1h 39mn
Bit rate mode                    : Constant
Bit rate                         : 128 Kbps
Channel(s)                       : 2 channels
Channel positions                : Front: L R
Sampling rate                    : 48.0 KHz
Stream size                      : 91.0 MiB (16%)
Language                         : Russian
Encoded date                     : UTC 2014-01-28 09:53:26
Tagged date                      : UTC 2014-01-28 09:53:26

Audio #2
ID                               : 3
Format                           : AAC
Format/Info                      : Advanced Audio Codec
Format version                   : Version 4
Format profile                   : LC
Format settings, SBR             : No
Codec ID                         : 40
Duration                         : 1h 39mn
Bit rate mode                    : Constant
Bit rate                         : 128 Kbps
Channel(s)                       : 2 channels
Channel positions                : Front: L R
Sampling rate                    : 48.0 KHz
Stream size                      : 91.0 MiB (16%)
Language                         : Ukrainian
Encoded date                     : UTC 2014-01-28 09:53:26
Tagged date                      : UTC 2014-01-28 09:53:26

Audio #3
ID                               : 4
Format                           : AAC
Format/Info                      : Advanced Audio Codec
Format version                   : Version 4
Format profile                   : LC
Format settings, SBR             : No
Codec ID                         : 40
Duration                         : 1h 39mn
Bit rate mode                    : Constant
Bit rate                         : 128 Kbps
Channel(s)                       : 2 channels
Channel positions                : Front: L R
Sampling rate                    : 48.0 KHz
Stream size                      : 91.2 MiB (16%)
Language                         : English
Encoded date                     : UTC 2014-01-28 09:53:26
Tagged date                      : UTC 2014-01-28 09:53:26
info [Профиль]  [ЛС] 
Показать сообщения:    
Ответить на тему

Текущее время: 04-Дек 07:53

Часовой пояс: GMT + 4



Вы не можете начинать темы
Вы не можете отвечать на сообщения
Вы не можете редактировать свои сообщения
Вы не можете удалять свои сообщения
Вы не можете голосовать в опросах
Вы не можете прикреплять файлы к сообщениям
Вы не можете скачивать файлы