Ошибка

Любовь в большом городе 3 (Марюс Вайсберг, Дэвид Додсон) [2013, комедия, WEB-DLRip]

Ответить на тему
 
Автор Сообщение

Linuxoid

Пол: Пол:Муж

Стаж: 6 лет

Сообщений: 284

Украина
Рейтинг

post 02-Фев-2014 03:48 0[+]

[Цитировать] 

Любовь в большом городе 3
«Мы верим в любовь»

Год выпуска: 2013
Страна: Россия , Украина
Жанр: комедия
Продолжительность: 01:18:38
Перевод: Оригинал
Режиссер: Марюс Вайсберг, Дэвид Додсон
Сценарий: Андрей Яковлев, Михаил Савин, Юрий Костюк, ...
Продюсер: Сергей Ливнев, Владимир Зеленский, Сергей Шефир, ...
Оператор: Брюс Алан Грин
Композитор: -
Монтаж: Дэвид Додсон
В ролях: Алексей Чадов , Владимир Зеленский , Светлана Ходченкова , Вера Брежнева , Вилле Хаапасало , Настя Задорожная
Описание: В жизни каждого отца, рано или поздно наступает момент, когда жена улетает на заслуженный отдых, а он остается один на один с собственным ребенком. Казалось бы — ничего сложного! Также подумали Игорь, Артем и Сауна, даже не подозревая, какой «водопад» приключений накроет их с головой. Измученные «прелестями» отцовства, парни встречают своего старого приятеля Святого Валентина. Снимая стресс за бутылочкой виски, ребята в шутку мечтают о том, чтобы их дети поскорее стали взрослыми. А на утро, шокированные папаши понимают — их мечта сбылась и теперь они на собственной шкуре поймут, что значит поговорка: Большие дети — большие проблемы…
Сборы в России: $15 667 944 сборы
Зрители: Россия 2.11 млн
Премьера (мир): 1 января 2014, ...
Премьера (РФ): 1 января 2014, «Централ Партнершип»
Релиз на DVD: 30 января 2014, «CD Land», ...



Качество: WEB-DLRip
Формат: MPEG-4
Видео кодек: AVC
Аудио кодеk: AAC LC
Видео: 480x272 (16:9), 25.000 fps, AVC, 640 Kbps
Аудио: Аудио #1: AAC LC, 129 Kbps, 48.0 KHz, 2 ch

Код:

General
Complete name                    : Love.in.the.Big.City.3.2013.WEB-DL.mp4
Format                           : MPEG-4
Format profile                   : Base Media
Codec ID                         : isom
File size                        : 435 MiB
Duration                         : 1h 18mn
Overall bit rate                 : 773 Kbps
Encoded date                     : UTC 2014-01-31 23:06:35
Tagged date                      : UTC 2014-01-31 23:06:35

Video
ID                               : 1
Format                           : AVC
Format/Info                      : Advanced Video Codec
Format profile                   : Main@L3.0
Format settings, CABAC           : Yes
Format settings, ReFrames        : 2 frames
Codec ID                         : avc1
Codec ID/Info                    : Advanced Video Coding
Duration                         : 1h 18mn
Bit rate mode                    : Variable
Bit rate                         : 640 Kbps
Maximum bit rate                 : 1 893 Kbps
Width                            : 480 pixels
Height                           : 272 pixels
Display aspect ratio             : 16:9
Frame rate mode                  : Constant
Frame rate                       : 25.000 fps
Color space                      : YUV
Chroma subsampling               : 4:2:0
Bit depth                        : 8 bits
Scan type                        : Progressive
Bits/(Pixel*Frame)               : 0.196
Stream size                      : 360 MiB (83%)
Writing library                  : x264 core 65 r999kMod cc51047
Encoding settings                : cabac=1 / ref=2 / deblock=1:0:0 / analyse=0x1:0x131 / me=umh / subme=6 / psy_rd=1.0:0.0 / mixed_ref=1 / me_range=16 / chroma_me=1 / trellis=1 / 8x8dct=0 / cqm=0 / deadzone=21,11 / chroma_qp_offset=-2 / threads=4 / thread_queue=4 / nr=0 / decimate=1 / mbaff=0 / bframes=3 / b_pyramid=0 / b_adapt=1 / b_bias=0 / direct=3 / wpredb=1 / keyint=250 / keyint_min=25 / scenecut=40(pre) / rc=2pass / bitrate=640 / ratetol=1.0 / qcomp=0.60 / qpmin=10 / qpmax=51 / qpstep=4 / cplxblur=20.0 / qblur=0.5 / ip_ratio=1.40 / pb_ratio=1.30 / aq=1:1.00
Encoded date                     : UTC 2014-01-31 23:06:35
Tagged date                      : UTC 2014-01-31 23:07:02

Audio
ID                               : 2
Format                           : AAC
Format/Info                      : Advanced Audio Codec
Format version                   : Version 4
Format profile                   : LC
Format settings, SBR             : No
Codec ID                         : 40
Duration                         : 1h 18mn
Bit rate mode                    : Variable
Bit rate                         : 129 Kbps
Maximum bit rate                 : 176 Kbps
Channel(s)                       : 2 channels
Channel positions                : Front: L R
Sampling rate                    : 48.0 KHz
Stream size                      : 72.6 MiB (17%)
Encoded date                     : UTC 2014-01-31 23:06:59
Tagged date                      : UTC 2014-01-31 23:07:02
· При разработке плана поцелуя в отеле Настя (Светлана Ходченкова) обращается к своему мужу, Игорю (Владимир Зеленский) по фамилии: Зеленский.

info [Профиль]  [ЛС] 
Показать сообщения:    
Ответить на тему

Текущее время: 09-Дек 08:04

Часовой пояс: GMT + 4



Вы не можете начинать темы
Вы не можете отвечать на сообщения
Вы не можете редактировать свои сообщения
Вы не можете удалять свои сообщения
Вы не можете голосовать в опросах
Вы не можете прикреплять файлы к сообщениям
Вы не можете скачивать файлы