Ошибка

National Geographic: Путешествие на край Вселенной / National Geographic: Journey to the Edge of the Universe (Явар Аббас / Yavar Abbas) [2008, Документальный, BDRip]

Ответить на тему
 
Автор Сообщение

Lord_Nazgool

Пол: Пол:Муж

Стаж: 2 года 11 месяцев

Сообщений: 6

Белоруссия
Рейтинг

post 30-Янв-2014 17:27 0[+]

[Цитировать] 

National Geographic: Путешествие на край Вселенной / National Geographic: Journey to the Edge of the Universe

Год выпуска: 2008
Страна: США
Жанр: Документальный
Продолжительность: 01:30:32
Перевод: Профессиональный (дублированный)
Русские субтитры: нет
Режиссер:
  • Явар Аббас / Yavar Abbas

Описание: Это путешествие увлекает нас к истокам зарождения жизни, Столпам Мироздания, давая возможность заглянуть далеко за облака космической пыли, туда, где рождаются огромные звезды, даря Вселенной свой свет, а может быть и жизнь.

Качество: BDRip
Формат: AVI
Видео: 720x400 (1.80:1), 23.976 fps, XviD build 50, 1974 kbps avg, 0.29 bit/pixel
Аудио: 48 kHz, AC3 Dolby Digital, 3/2 (L,C,R,l,r) + LFE ch, 6 channels, 320 kbps
Video
ID : 0
Format : MPEG-4 Visual
Format profile : Advanced Simple@L5
Format settings, BVOP : Yes
Format settings, QPel : No
Format settings, GMC : No warppoints
Format settings, Matrix : Default (MPEG)
Codec ID : XVID
Codec ID/Hint : XviD
Duration : 1h 30mn
Bit rate : 1 975 Kbps
Width : 720 pixels
Height : 400 pixels
Display aspect ratio : 16:9
Original display aspect ratio : 16:9
Frame rate : 23.976 fps
Color space : YUV
Chroma subsampling : 4:2:0
Bit depth : 8 bits
Scan type : Progressive
Compression mode : Lossy
Bits/(Pixel*Frame) : 0.286
Stream size : 1.25 GiB (86%)
Writing library : XviD 1.2.1 (UTC 2008-12-04)

Audio
ID : 1
Format : AC-3
Format/Info : Audio Coding 3
Mode extension : CM (complete main)
Format settings, Endianness : Big
Codec ID : 2000
Duration : 1h 30mn
Bit rate mode : Constant
Bit rate : 320 Kbps
Channel(s) : 6 channels
Channel positions : Front: L C R, Side: L R, LFE
Sampling rate : 48.0 KHz
Bit depth : 16 bits
Compression mode : Lossy
Stream size : 207 MiB (14%)
Alignment : Split accross interleaves
Interleave, duration : 42 ms (1.00 video frame)
Interleave, preload duration : 500 ms
info [Профиль]  [ЛС] 

Maldavan

Пол: Пол:Муж

Стаж: 4 года

Сообщений: 28

Россия
Рейтинг

post 31-Янв-2014 03:25 (спустя 9 часов) [-]3[+]

[Цитировать] 

Люблю космос и вселенную, спс за раздачу kolob_118
info [Профиль]  [ЛС] 

FSINovec

Пол: Пол:Муж

Стаж: 7 лет 5 месяцев

Сообщений: 316

Россия
Рейтинг

post 31-Янв-2014 15:07 (спустя 11 часов) [-]2[+]

[Цитировать] 

Вчера смотрел! Очень понравилось! Но такое нужно смотреть в 1080р! )

_________________
Это Летов и Cobain, это лето и портвейн
Это первое баре, на гитаре во дворе
Это Beatles и Woodstock, это Pistols и панк-рок
Это то, что нас тогда изменило навсегда
info [Профиль]  [ЛС] 

stigmata03

Пол: Пол:Муж

Стаж: 6 лет 8 месяцев

Сообщений: 8

Россия
Рейтинг

post 31-Янв-2014 20:12 (спустя 5 часов) [-]2[+]

[Цитировать] 

Один из лучших фильмов о космосе. Очень понравился!
info [Профиль]  [ЛС] 
Показать сообщения:    
Ответить на тему

Текущее время: 06-Дек 00:46

Часовой пояс: GMT + 4



Вы не можете начинать темы
Вы не можете отвечать на сообщения
Вы не можете редактировать свои сообщения
Вы не можете удалять свои сообщения
Вы не можете голосовать в опросах
Вы не можете прикреплять файлы к сообщениям
Вы не можете скачивать файлы