Ошибка

Мачете убивает / Machete Kills (Роберт Родригес / Robert Rodriguez) [2013 , Россия, США , боевик, комедия , HDRip]

Ответить на тему
 
Автор Сообщение

Linuxoid

Пол: Пол:Муж

Стаж: 6 лет

Сообщений: 284

Украина
Рейтинг

post 25-Янв-2014 16:36 0[+]

[Цитировать] 

Мачете убивает / Machete Kills
«Наученный убивать. Брошенный умирать. Вернулся спасти мир»
Оригинальное название: Machete Kills
Страна: Россия, США
Жанр: боевик, комедия

Год выпуска: 2013
Продолжительность: 01:47:59

Перевод:
  • Профессиональный (полное дублирование)

Режиссер: Роберт Родригес / Robert Rodriguez

В ролях:
Дэнни Трехо (Machete), Мишель Родригес (Luz), Эмбер Хёрд (Miss San Antonio), Демиан Бишир (Mendez), Мэл Гибсон (Voz), София Вергара (Desdemona), Чарли Шин (Mr. President), Леди Гага (La Camaleón), Алекса ПенаВега (KillJoy), Антонио Бандерас (El Camaleón 4), Кьюба Гудинг мл. (El Camaleón 2), Джессика Альба (Sartana, в титрах не указана)
Дублёры: Сергей Чонишвили (Machete), Ирина Киреева (Luz), Наталья Грачева (Miss San Antonio), Леонид Белозорович (Mendez), Юрий Деркач (Voz), Елена Шульман (Desdemona), Пётр Иващенко (Mr. President ; El Camaleón 2), Жанна Никонова (La Camaleón; Sartana), Илья Исаев (El Camaleón 4; El Cameleón 1), Мария Иващенко (Cereza), Никита Прозоровский (Osiris Amanapur; Male Tourist; Doc Felix), Денис Некрасов (Sheriff Doakes)
Описание: Правительство США вербует Мачете для миссии, которую не под силу выполнить простому смертному. Мачете прорывается в Мексику, чтобы схватить безумного лидера карательного отряда и эксцентричного миллиардера, торгующего оружием, который, в свою очередь, лелеет мечту начать войну планетарного масштаба и запустить смертельно опасное оружие в космос. И только Мачете может предотвратить этот глобальный хаос.

MPAA: R - Лицам до 17 лет обязательно присутствие взрослого

Качество видео: HDRip
Формат: MP4
Видео кодек: H.264
Аудио кодек: AAC
Видео: AVC, 480x272 (16:9), 680 kbps, 24 fps, 0,217 bpp
Аудио : AAC-LC VBR 2 channels, 48.0 KHz ~128 Kbps

Код:

General
Complete name                            : E:\Фильмы\PSP\Боевики\Machete Kills (2013)\Machete Kills (2013).mp4
Format                                   : MPEG-4
Format profile                           : Base Media
Codec ID                                 : isom
File size                                : 627 MiB
Duration                                 : 1h 47mn
Overall bit rate mode                    : Variable
Overall bit rate                         : 812 Kbps
Encoded date                             : UTC 2014-01-25 10:14:07
Tagged date                              : UTC 2014-01-25 10:14:07

Video
ID                                       : 1
Format                                   : AVC
Format/Info                              : Advanced Video Codec
Format profile                           : Main@L3.0
Format settings, CABAC                   : Yes
Format settings, ReFrames                : 3 frames
Codec ID                                 : avc1
Codec ID/Info                            : Advanced Video Coding
Duration                                 : 1h 47mn
Bit rate                                 : 680 Kbps
Maximum bit rate                         : 7 238 Kbps
Width                                    : 480 pixels
Height                                   : 272 pixels
Display aspect ratio                     : 16:9
Frame rate mode                          : Constant
Frame rate                               : 24.000 fps
Color space                              : YUV
Chroma subsampling                       : 4:2:0
Bit depth                                : 8 bits
Scan type                                : Progressive
Bits/(Pixel*Frame)                       : 0.217
Stream size                              : 525 MiB (84%)
Writing library                          : x264 core 130 r2273 b3065e6
Encoding settings                        : cabac=1 / ref=3 / deblock=1:-2:-1 / analyse=0x1:0x131 / me=umh / subme=10 / psy=1 / psy_rd=1.00:0.20 / mixed_ref=1 / me_range=32 / chroma_me=1 / trellis=2 / 8x8dct=0 / cqm=0 / deadzone=21,11 / fast_pskip=0 / chroma_qp_offset=-3 / threads=12 / lookahead_threads=1 / sliced_threads=0 / nr=0 / decimate=0 / interlaced=0 / bluray_compat=0 / constrained_intra=0 / bframes=3 / b_pyramid=0 / b_adapt=2 / b_bias=0 / direct=3 / weightb=1 / open_gop=0 / weightp=2 / keyint=250 / keyint_min=23 / scenecut=40 / intra_refresh=0 / rc_lookahead=60 / rc=2pass / mbtree=1 / bitrate=680 / ratetol=1.0 / qcomp=0.60 / qpmin=0 / qpmax=69 / qpstep=4 / cplxblur=20.0 / qblur=0.5 / ip_ratio=1.40 / aq=1:1.00
Encoded date                             : UTC 2014-01-25 10:14:07
Tagged date                              : UTC 2014-01-25 10:14:27

Audio
ID                                       : 2
Format                                   : AAC
Format/Info                              : Advanced Audio Codec
Format profile                           : LC
Codec ID                                 : 40
Duration                                 : 1h 47mn
Bit rate mode                            : Variable
Bit rate                                 : 128 Kbps
Maximum bit rate                         : 188 Kbps
Channel(s)                               : 2 channels
Channel positions                        : Front: L R
Sampling rate                            : 48.0 KHz
Compression mode                         : Lossy
Stream size                              : 98.8 MiB (16%)
Encoded date                             : UTC 2014-01-25 10:14:23
Tagged date                              : UTC 2014-01-25 10:14:27
info [Профиль]  [ЛС] 
Показать сообщения:    
Ответить на тему

Текущее время: 07-Дек 22:26

Часовой пояс: GMT + 4



Вы не можете начинать темы
Вы не можете отвечать на сообщения
Вы не можете редактировать свои сообщения
Вы не можете удалять свои сообщения
Вы не можете голосовать в опросах
Вы не можете прикреплять файлы к сообщениям
Вы не можете скачивать файлы