Ошибка

Гонка / Rush (Рон Ховард / Ron Howard) [2013 , США, Германия, Великобритания , спорт, драма, биография , BDRip]

Ответить на тему
 
Автор Сообщение

Linuxoid

Пол: Пол:Муж

Стаж: 6 лет

Сообщений: 284

Украина
Рейтинг

post 25-Янв-2014 13:03 0[+]

[Цитировать] 

Гонка / Rush
«Делай что должен, и будь что будет»
Оригинальное название: Rush
Страна: США, Германия, Великобритания
Жанр: спорт, драма, биография
Год выпуска: 2013
Продолжительность: 02:02:42

Перевод:
  • Профессиональный (полное дублирование) [Чистый звук]

Режиссер: Рон Ховард / Ron Howard

В ролях:
Крис Хемсворт (James Hunt), Даниэль Брюль (Niki Lauda), Оливия Уайлд (Suzy Miller), Александра Мария Лара (Marlene Lauda), Пьерфранческо Фавино (Clay Regazzoni), Дэвид Колдер (Louis Stanley), Натали Дормер (Nurse Gemma), Стефен Мэнгэн (Alastair Caldwell), Кристиан МакКэй (Lord Hesketh), Алистэр Петри (Stirling Moss), Джулиан Райнд-Татт (Anthony «Bubbles» Horsley), Колин Стинтон (Teddy Mayer)
Дублёры: Пётр Иващенко (James Hunt), Илья Бледный (Niki Lauda), Даниил Эльдаров (Anthony «Bubbles» Horsley), Никита Прозоровский
Описание: 70-е годы XX века. Золотое время «Формулы-1»: обтекаемые формы гоночных машин, брутальные на треке и ранимые в обычной жизни гонщики, сексуальные поклонницы, литры шампанского на финише для победителя... Два непримиримых соперника в истории гонок - обаятельный плейбой-англичанин Джеймс Хант и дисциплинированный перфекционист-австриец Ники Лауда - доводят себя до предела физической и психологической выносливости ради триумфа на трассе. Для них нет легких путей к победе и права на ошибку. Единственный промах гонщикам может стоить карьеры и даже жизни.

MPAA: R - Лицам до 17 лет обязательно присутствие взрослого

Качество видео: BDRip
Формат: MP4
Видео кодек: H.264
Аудио кодек: AAC
Видео: AVC, 480x208 (2.35:1), 680 kbps, 23,976 fps, 0,284 bpp
Аудио : AAC-LC VBR 2 channels, 48.0 KHz ~128 Kbps

Код:

General
Complete name                            : E:\Фильмы\PSP\Спорт\Rush (2013)\Rush (2013).mp4
Format                                   : MPEG-4
Format profile                           : Base Media
Codec ID                                 : isom
File size                                : 712 MiB
Duration                                 : 2h 2mn
Overall bit rate mode                    : Variable
Overall bit rate                         : 812 Kbps
Encoded date                             : UTC 2014-01-24 13:32:42
Tagged date                              : UTC 2014-01-24 13:32:42

Video
ID                                       : 1
Format                                   : AVC
Format/Info                              : Advanced Video Codec
Format profile                           : Main@L3.0
Format settings, CABAC                   : Yes
Format settings, ReFrames                : 3 frames
Codec ID                                 : avc1
Codec ID/Info                            : Advanced Video Coding
Duration                                 : 2h 2mn
Bit rate                                 : 680 Kbps
Maximum bit rate                         : 3 393 Kbps
Width                                    : 480 pixels
Height                                   : 208 pixels
Display aspect ratio                     : 2.35:1
Frame rate mode                          : Constant
Frame rate                               : 23.976 fps
Color space                              : YUV
Chroma subsampling                       : 4:2:0
Bit depth                                : 8 bits
Scan type                                : Progressive
Bits/(Pixel*Frame)                       : 0.284
Stream size                              : 597 MiB (84%)
Writing library                          : x264 core 130 r2273 b3065e6
Encoding settings                        : cabac=1 / ref=3 / deblock=1:-2:-1 / analyse=0x1:0x131 / me=umh / subme=10 / psy=1 / psy_rd=1.00:0.20 / mixed_ref=1 / me_range=32 / chroma_me=1 / trellis=2 / 8x8dct=0 / cqm=0 / deadzone=21,11 / fast_pskip=0 / chroma_qp_offset=-3 / threads=12 / lookahead_threads=1 / sliced_threads=0 / nr=0 / decimate=0 / interlaced=0 / bluray_compat=0 / constrained_intra=0 / bframes=3 / b_pyramid=0 / b_adapt=2 / b_bias=0 / direct=3 / weightb=1 / open_gop=0 / weightp=2 / keyint=250 / keyint_min=23 / scenecut=40 / intra_refresh=0 / rc_lookahead=60 / rc=2pass / mbtree=1 / bitrate=680 / ratetol=1.0 / qcomp=0.60 / qpmin=0 / qpmax=69 / qpstep=4 / cplxblur=20.0 / qblur=0.5 / ip_ratio=1.40 / aq=1:1.00
Encoded date                             : UTC 2014-01-24 13:32:42
Tagged date                              : UTC 2014-01-24 13:33:29

Audio
ID                                       : 2
Format                                   : AAC
Format/Info                              : Advanced Audio Codec
Format profile                           : LC
Codec ID                                 : 40
Duration                                 : 2h 2mn
Bit rate mode                            : Variable
Bit rate                                 : 128 Kbps
Maximum bit rate                         : 154 Kbps
Channel(s)                               : 2 channels
Channel positions                        : Front: L R
Sampling rate                            : 48.0 KHz
Compression mode                         : Lossy
Stream size                              : 112 MiB (16%)
Encoded date                             : UTC 2014-01-24 13:33:26
Tagged date                              : UTC 2014-01-24 13:33:29
info [Профиль]  [ЛС] 

Yakimov

Пол: Пол:Муж

Стаж: 4 года 6 месяцев

Сообщений: 7

Россия
Рейтинг

post 12-Мар-2014 22:44 (спустя 1 месяц 18 дней) [-]0[+]

[Цитировать] 

Интересно, выйдет ли блю рей у нас в стране.
info [Профиль]  [ЛС] 

xsardi

Пол: Пол:Муж

Стаж: 6 лет 9 месяцев

Сообщений: 14

Дания
Рейтинг

post 03-Окт-2015 22:10 (спустя 1 год 6 месяцев) [-]0[+]

[Цитировать] 

Привет, я просто хотел вам всем сказать, что я ебаный мудак
info [Профиль]  [ЛС] 
Показать сообщения:    
Ответить на тему

Текущее время: 08-Дек 10:07

Часовой пояс: GMT + 4



Вы не можете начинать темы
Вы не можете отвечать на сообщения
Вы не можете редактировать свои сообщения
Вы не можете удалять свои сообщения
Вы не можете голосовать в опросах
Вы не можете прикреплять файлы к сообщениям
Вы не можете скачивать файлы