Ошибка

До окончания фрилича осталось:


Шерлок / Sherlock (Джереми Лавринг, Колм Маккарти, Ник Харран) [3 Сезон + Special][3 из 3 / 1 из 1][2014 г., детектив, драма, HDTVRip] Dub (Первый канал)

Ответить на тему
 
Автор Сообщение

Linuxoid

Пол: Пол:Муж

Стаж: 6 лет

Сообщений: 284

Украина
Рейтинг

post 24-Янв-2014 01:05 0[+]

[Цитировать] 

Шерлок

(3 Сезон)

Оригинальное Название: Sherlock
Год Выпуска: 2014
Cтрана: Великобритания
Жанр: детектив, драма
Сезон: 3
Кол-во Серий: 3 из 3 (+ Special: 1 из 1)
Продолжительность серии: ~ 90 мин. (Special: ~ 7 мин.)
Перевод: Профессиональный (дублированный) [Первый канал]
Перевод (Special): Профессиональный (многоголосый, закадровый) [AlexFilm]
Режиссеры: Джереми Лавринг, Колм Маккарти, Ник Харран

В ролях: Бенедикт Камбербэтч, Мартин Фриман, Уна Стаббс, Лу Брили, Руперт Грейвз, Марк Гатисс, Зои Телфорд, Винетт Робинсон, Таня Муди, Джонатан Арис и др.
Описание:
Сериал представляет собой современную версию книг и рассказов о приключениях Шерлока Холмса. Отсюда изменение образов главных персонажей: Холмс здесь не всегда вежлив, но всё так же гениален; в отличие от оригинального Холмса, он не употребляет наркотики и использует никотиновый пластырь. Ватсон, как и в оригинальных произведениях, служил военным врачом в Афганистане. Миссис Хадсон относится к Холмсу как к сыну, хотя и не одобряет то, что он часто приказывает ей как домработнице. Лестрейд не против сотрудничества с Холмсом, и часто сам зовёт его на помощь. Его характер из книг передан девушке-сержанту Салли Донован. Также, в отличие от книг, здесь Холмс и Ватсон называют друг друга по именам, а не по фамилиям.

Третий сезон: после смерти Шерлока проходит два года, жизнь доктора Джона Ватсона идет своим чередом. А вот над Лондоном нависает угроза разрушительной террористической атаки, и Шерлок готовит сценарий своего невероятного воскрешения. Но, если он думает, что за время его отсутствия ничего не изменилось – он будет очень удивлен…



Источник: HDTV 1080i
Качество: HDTVRip
Формат: MP4
Видео кодек: H.264
Аудио кодек: AAC
Видео: MPEG-4 AVC Video (H.264) / 480х272 / 520-640 kbps / 25.000 fps / 16:9 / Main Profile 3.0
Аудио: AAC, 2 channels, 48 kHz, 128 kbps

0. Многих лет жизни / Many Happy Returns
1. Пустой катафалк / The Empty Hearse
2. Знак трёх / The Sign of Three
3. Его последний обет / His Last Vow

Код:

General
Complete name                       : D:\PSP\Раздачи\Сериалы\Шерлок (3 Сезон)\Sherlock.s03e01.HDTVRip.rus.1TV.mp4
Format                              : MPEG-4
Format profile                      : Base Media
Codec ID                            : isom
File size                           : 428 MiB
Duration                            : 1h 26mn
Overall bit rate mode               : Variable
Overall bit rate                    : 692 Kbps
Encoded date                        : UTC 2014-01-13 19:47:59
Tagged date                         : UTC 2014-01-13 19:47:59

Video
ID                                  : 1
Format                              : AVC
Format/Info                         : Advanced Video Codec
Format profile                      : Main@L3.0
Format settings, CABAC              : Yes
Format settings, ReFrames           : 3 frames
Codec ID                            : avc1
Codec ID/Info                       : Advanced Video Coding
Duration                            : 1h 26mn
Bit rate                            : 560 Kbps
Maximum bit rate                    : 6 176 Kbps
Width                               : 480 pixels
Height                              : 272 pixels
Display aspect ratio                : 16:9
Frame rate mode                     : Constant
Frame rate                          : 25.000 fps
Color space                         : YUV
Chroma subsampling                  : 4:2:0
Bit depth                           : 8 bits
Scan type                           : Progressive
Bits/(Pixel*Frame)                  : 0.172
Stream size                         : 347 MiB (81%)
Writing library                     : x264 core 130 r2273 b3065e6
Encoding settings                   : cabac=1 / ref=3 / deblock=1:-2:-1 / analyse=0x1:0x131 / me=umh / subme=9 / psy=1 / psy_rd=1.00:0.20 / mixed_ref=1 / me_range=16 / chroma_me=1 / trellis=2 / 8x8dct=0 / cqm=0 / deadzone=21,11 / fast_pskip=0 / chroma_qp_offset=-3 / threads=12 / lookahead_threads=1 / sliced_threads=0 / nr=0 / decimate=0 / interlaced=0 / bluray_compat=0 / constrained_intra=0 / bframes=3 / b_pyramid=0 / b_adapt=2 / b_bias=0 / direct=1 / weightb=1 / open_gop=0 / weightp=2 / keyint=250 / keyint_min=25 / scenecut=40 / intra_refresh=0 / rc=cqp / mbtree=0 / qp=20 / ip_ratio=1.40 / pb_ratio=1.30 / aq=0
Encoded date                        : UTC 2014-01-13 19:47:59
Tagged date                         : UTC 2014-01-13 19:49:13

Audio
ID                                  : 2
Format                              : AAC
Format/Info                         : Advanced Audio Codec
Format profile                      : LC
Codec ID                            : 40
Duration                            : 1h 26mn
Bit rate mode                       : Variable
Bit rate                            : 128 Kbps
Maximum bit rate                    : 146 Kbps
Channel(s)                          : 2 channels
Channel positions                   : Front: L R
Sampling rate                       : 48.0 KHz
Compression mode                    : Lossy
Delay relative to video             : 40ms
Stream size                         : 79.2 MiB (18%)
Encoded date                        : UTC 2014-01-13 19:49:06
Tagged date                         : UTC 2014-01-13 19:49:13




Если вы скачали данный релиз и хотите выложить его на другом ресурсе -
пожалуйста, указывайте первоисточник
- R.G. Video Games World
info [Профиль]  [ЛС] 
Показать сообщения:    
Ответить на тему

Текущее время: 10-Дек 10:53

Часовой пояс: GMT + 4



Вы не можете начинать темы
Вы не можете отвечать на сообщения
Вы не можете редактировать свои сообщения
Вы не можете удалять свои сообщения
Вы не можете голосовать в опросах
Вы не можете прикреплять файлы к сообщениям
Вы не можете скачивать файлы