Ошибка

Бэтмен / Batman: The Animated Series / Сезоны: 1, 2 / Серии: 2-85 из 85 (Алан Бёрнет / Alan Burnett, Брюс Тимм / Bruce Timm) [1992-1995, Детектив, DVB] Dub (2x2)

Ответить на тему
 
Автор Сообщение

DARKAN

Пол: Пол:Муж

Стаж: 3 года 4 месяца

Сообщений: 56

Россия
Рейтинг

post 23-Янв-2014 23:00 2[+]

[Цитировать] 

Бэтмен

Оригинальное название: Batman: The Animated Series
Год выпуска: 1992
Страна: США
Жанр: Детектив
Серии: 2-85 из 85
Сезоны: 1, 2
Продолжительность: 00:19:51
Перевод: Профессиональный (полное дублирование)
Режиссёры:
  • Алан Бёрнет / Alan Burnett, Брюс Тимм / Bruce Timm
В ролях:
  • Кевин Сонрой / Kevin Conroy, Боб Хатингс / Bob Hastings, Лорен Лестер / Loren Lester, Джейн Алан / Jane Alan и другие.

Описание:
5 сентября 1992 г. Бэт-вселенная была заново рождена: на американских телеэкранах состоялась премьера анимационного шоу “Бэтмен” - Batman: The Animated Series, известного также как BTAS. Созданный мультипликаторами из кинокомпании “Уорнер Бразерс” на волне популярности фильмов Тима Бертона, сериал представлял собой исключительно удачный синтез лучших сюжетных мотивов и стилистических решений многолетней комиксовой и кинематографической “бэтменианы”; даже самые привередливые фаны чувствовали, что на этот раз все сделано “так, как надо”. BTAS завоевал такую популярность, что повлиял на текущую последовательность историй DC, подарив ей новых персонажей и изменив имидж многих уже существовавших...
Качество: DVB
Формат: MPG
Данные видео: MPEG2, 720x576, 25.000 fps, 2.660 Kbps
Данные аудио: MP2, 48.0 KHz, 2 ch, 192 Kbps
Сезон 1:
02. Christmas with the Joker
03. Nothing to Fear
04. The Last Laugh
05. Pretty Poison
06. The Underdwellers
07. P.O.V.
08. The Forgotten
09. Be a Clown
10. Two-Face, Part 1
11. Two-Face, Part 2
12. It's Never Too Late
13. I've Got Batman in My Basement
14. Heart of Ice
15. The Cat and the Claw, Part 1
16. The Cat and the Claw, Part 2
17. See No Evil
18. Beware the Gray Ghost
19. Prophecy of Doom
20. Feat of Clay, Part 1
21. Feat of Clay, Part 2
22. Joker's Favor
23. Vendetta
24. Fear of Victory
25. The Clock King
26. Appointment in Crime Alley
27. Mad as a Hatter
28. Dreams in Darkness
29. Eternal Youth
30. Perchance to Dream
31. The Cape and Cowl Conspiracy
32. Robin's Reckoning, Part 1
33. Robin's Reckoning, Part 2
34. The Laughing Fish
35. Night of the Ninja
36. Cat Scratch Fever
37. The Strange Secret of Bruce Wayne
38. Heart of Steel, Part 1
39. Heart of Steel, Part 2
40. If You're So Smart, Why Aren't You Rich?
41. Joker's Wild
42. Tyger, Tyger
43. Moon of the Wolf
44. Day of the Samurai
45. Terror in the Sky
46. Almost Got 'Im
47. Birds of a Feather
48. What Is Reality?
49. I Am the Night
50. Off Balance
51. The Man Who Killed Batman
52. Mudslide
53. Paging the Crime Doctor
54. Zatanna
55. The Mechanic
56. Harley and Ivy
57. Shadow of the Bat, Part 1
58. Shadow of the Bat, Part 2
59. Blind as a Bat
60. The Demon's Quest, Part 1
61. The Demon's Quest, Part 2
62. His Silicon Soul
63. Fire from Olympus
64. Read My Lips
65. The Worry Men
Сезон 2:
01. Sideshow
02. A Bullet for Bullock
03. Trial
04. Avatar
05. House & Garden
06. The Terrible Trio
07. Harlequinade
08. Time Out of Joint
09. Catwalk
10. Bane
11. Baby-Doll
12. The Lion and the Unicorn
13. Showdown
14. Riddler's Reform
15. Second Chance
16. Harley's Holiday
17. Lock-Up
18. Make 'Em Laugh
19. Deep Freeze
20. Batgirl Returns
Внимание! Раздача ведётся путём добавления новых серий; при каждом добавлении создаётся новый торрент. Чтобы начать докачку новой серии, пользователям необходимо сделать следующее:
(1) остановить скачивание,
(2) удалить старый торрент у себя из клиента (старые серии удалять не надо),
(3) скачать новый торрент и запустить его у себя в клиенте вместо старого, при этом указать клиенту путь в старую папку куда и должно происходить скачивание новых серий.

Ваш клиент при этом должен произвести хеширование (проверку) старой папки (если не производит сам - помогите ему сделать это), и будет докачивать только те серии которых у вас ещё нет. Старые серии при этом не удаляются, а продолжают раздаваться!

Eсли вы уже удалили старые серии, то предотвратить повторную закачку старых серий можно, отжав галочку в соответствующих местах при запуске нового торрента. По возможности, желательно не удалять старые серии как можно дольше чтобы релизёр не столько продолжал раздавать старые серии, а смог сконцентрироваться на новых.
 
General
Complete name : D:\IPTV\Бэтмен\Batman.s02.e14.mpg
Format : MPEG-PS
File size : 414 MiB
Duration : 19mn 52s
Overall bit rate mode : Variable
Overall bit rate : 2 910 Kbps

Video
ID : 224 (0xE0)
Format : MPEG Video
Format version : Version 2
Format profile : Main@Main
Format settings, BVOP : Yes
Format settings, Matrix : Custom
Format settings, GOP : Variable
Duration : 19mn 52s
Bit rate mode : Variable
Bit rate : 2 660 Kbps
Maximum bit rate : 15.0 Mbps
Width : 720 pixels
Height : 576 pixels
Display aspect ratio : 4:3
Frame rate : 25.000 fps
Standard : PAL
Color space : YUV
Chroma subsampling : 4:2:0
Bit depth : 8 bits
Scan type : Interlaced
Scan order : Top Field First
Compression mode : Lossy
Bits/(Pixel*Frame) : 0.257
Stream size : 378 MiB (91%)

Audio
ID : 192 (0xC0)
Format : MPEG Audio
Format version : Version 1
Format profile : Layer 2
Duration : 19mn 52s
Bit rate mode : Constant
Bit rate : 192 Kbps
Channel(s) : 2 channels
Sampling rate : 48.0 KHz
Compression mode : Lossy
Delay relative to video : 19ms
Stream size : 27.3 MiB (7%)
info [Профиль]  [ЛС] 

Ritsu

Пол: Пол:Муж

Стаж: 5 лет 5 месяцев

Сообщений: 856

Австралия
Рейтинг

post 14-Мар-2014 01:10 (спустя 1 месяц 21 день) [-]1[+]

[Цитировать] 

Ушел пересматривать все серии с Харли.
Спасибо, автор. Добра тебе. :3

_________________
Флудите вместе с Рицу и будет вам счастье! ^__^

"...Зажжем рок в этой дыре!.."
info [Профиль]  [ЛС] 

Phenom2013

Пол: Пол:Муж

Стаж: 3 года 11 месяцев

Сообщений: 152

СССР
Рейтинг

post 14-Мар-2014 08:59 (спустя 7 часов) [-]0[+]

[Цитировать] 

info [Профиль]  [ЛС] 

Logotip

Пол: Пол:Муж

Стаж: 5 лет 1 месяц

Сообщений: 4

Италия
Рейтинг

post 14-Мар-2014 12:05 (спустя 3 часа) [-]0[+]

[Цитировать] 

Все эти 85 эпизодов делились не на 2, а на 4 сезона, если не ошибаюсь. И подскажи, автор, по какому принципу здесь расставлены серии? Просто, опять же, они выходили в эфир в ином порядке.

А за раздачу спасибо Улыбаюсь
info [Профиль]  [ЛС] 

Alexch24

Стаж: 3 года 8 месяцев

Сообщений: 4

Рейтинг

post 20-Апр-2016 00:02 (спустя 2 года 1 месяц) [-]0[+]

[Цитировать] 

а почему нет первой серии?
info [Профиль]  [ЛС] 
Показать сообщения:    
Ответить на тему

Текущее время: 08-Дек 00:23

Часовой пояс: GMT + 4



Вы не можете начинать темы
Вы не можете отвечать на сообщения
Вы не можете редактировать свои сообщения
Вы не можете удалять свои сообщения
Вы не можете голосовать в опросах
Вы не можете прикреплять файлы к сообщениям
Вы не можете скачивать файлы