Ошибка

Жacмин / Вluе Jаsminе (Byди Aллeн / Wооdу Аllеn) [2013 г., драма, комедия, HDRip]

Ответить на тему
 
Автор Сообщение

Linuxoid

Пол: Пол:Муж

Стаж: 6 лет

Сообщений: 284

Украина
Рейтинг

post 22-Янв-2014 23:05 0[+]

[Цитировать] 

Жасмин

- - - - - - - - - -

Оригинальное Название: Blue Jasmine
Год Выпуска: 2013 г.
Cтрана: США
Жанр: драма, комедия
Продолжительность: 01:38:25
Перевод: Профессиональный (дублированный) [iTunes]
Режиссер: Вуди Аллен

В ролях: Кейт Бланшетт, Салли Хокинс, Алек Болдуин, Бобби Каннавейл, Питер Сарсгаард, Луис С.К., Эндрю Дайс Клэй, Дэниэл Дженкс, Майкл Стулбарг, Макс Рутерфорд
Описание:
После того как все в ее жизни разваливается на части, в том числе и брак с богатым бизнесменом, светская жительница Нью-Йорка Жасмин переезжает в скромную квартиру сестры в Сан-Франциско, чтобы попытаться взять себя в руки и жить дальше.


Источник: BDRip 720p [CHD]
Качество: HDRip
Формат: MP4
Видео кодек: H.264
Аудио кодек: AAC
Видео: MPEG-4 AVC Video (H.264) / 480x208 / 610 kbps / 23.976 fps / 40:17 / Main Profile 3.0
Аудио: AAC, 2 channels, 48 kHz, 128 kbps

Код:

General
Complete name                            : /etc/seedbox/home/igorkolesnik/data/Жасмин.2013.HDRip.mp4
Format                                   : MPEG-4
Format profile                           : Base Media
Codec ID                                 : isom
File size                                : 522 MiB
Duration                                 : 1h 38mn
Overall bit rate mode                    : Variable
Overall bit rate                         : 741 Kbps
Encoded date                             : UTC 2014-01-19 09:31:48
Tagged date                              : UTC 2014-01-19 09:31:48

Video
ID                                       : 1
Format                                   : AVC
Format/Info                              : Advanced Video Codec
Format profile                           : Main@L3.0
Format settings, CABAC                   : Yes
Format settings, ReFrames                : 3 frames
Codec ID                                 : avc1
Codec ID/Info                            : Advanced Video Coding
Duration                                 : 1h 38mn
Bit rate                                 : 610 Kbps
Maximum bit rate                         : 2 657 Kbps
Width                                    : 480 pixels
Height                                   : 208 pixels
Display aspect ratio                     : 2.35:1
Frame rate mode                          : Constant
Frame rate                               : 23.976 fps
Color space                              : YUV
Chroma subsampling                       : 4:2:0
Bit depth                                : 8 bits
Scan type                                : Progressive
Bits/(Pixel*Frame)                       : 0.255
Stream size                              : 429 MiB (82%)
Writing library                          : x264 core 130 r2273 b3065e6
Encoding settings                        : cabac=1 / ref=3 / deblock=1:-2:-1 / analyse=0x1:0x131 / me=umh / subme=9 / psy=1 / psy_rd=1.00:0.20 / mixed_ref=1 / me_range=16 / chroma_me=1 / trellis=2 / 8x8dct=0 / cqm=0 / deadzone=21,11 / fast_pskip=0 / chroma_qp_offset=-3 / threads=12 / lookahead_threads=1 / sliced_threads=0 / nr=0 / decimate=0 / interlaced=0 / bluray_compat=0 / constrained_intra=0 / bframes=3 / b_pyramid=0 / b_adapt=2 / b_bias=0 / direct=1 / weightb=1 / open_gop=0 / weightp=2 / keyint=250 / keyint_min=23 / scenecut=40 / intra_refresh=0 / rc=cqp / mbtree=0 / qp=21 / ip_ratio=1.40 / pb_ratio=1.30 / aq=0
Encoded date                             : UTC 2014-01-19 09:31:48
Tagged date                              : UTC 2014-01-19 09:32:49

Audio
ID                                       : 2
Format                                   : AAC
Format/Info                              : Advanced Audio Codec
Format profile                           : LC
Codec ID                                 : 40
Duration                                 : 1h 38mn
Bit rate mode                            : Variable
Bit rate                                 : 128 Kbps
Maximum bit rate                         : 149 Kbps
Channel count                            : 2 channels
Channel positions                        : Front: L R
Sampling rate                            : 48.0 KHz
Compression mode                         : Lossy
Delay relative to video                  : 83ms
Stream size                              : 89.9 MiB (17%)
Encoded date                             : UTC 2014-01-19 09:32:46
Tagged date                              : UTC 2014-01-19 09:32:49



Если вы скачали данный релиз и хотите выложить его на другом ресурсе -
пожалуйста, указывайте первоисточник
- R.G. Video Games World
info [Профиль]  [ЛС] 
Показать сообщения:    
Ответить на тему

Текущее время: 11-Дек 02:30

Часовой пояс: GMT + 4



Вы не можете начинать темы
Вы не можете отвечать на сообщения
Вы не можете редактировать свои сообщения
Вы не можете удалять свои сообщения
Вы не можете голосовать в опросах
Вы не можете прикреплять файлы к сообщениям
Вы не можете скачивать файлы